.
Авторизация | Регистрация
Хочешь лучшие торренты? Добавь свой email!
Добавить
» » Гангстер / American Gangster (2007) HDRip-AVC | iPhone | D скачать через торрент бесплатно




    Гангстер / American Gangster (2007) HDRip-AVC | iPhone | D скачать через торрент бесплатно

    Опубликовал: Админ | Дата: 27-02-2015, 11:10 | Просмотров: 214



    Гангстер / American Gangster (2007) HDRip-AVC | iPhone | D

    Русское название: Гангстер
    Русское название в мировом прокате: American Gangster
    Создали в: 2007
    Категория жанра: драма, криминал, биография
    Главный режиссер: Ридли Скотт
    Актеры: Дензел Вашингтон, Рассел Кроу, Чиветель Эджиофор, Лимари Надаль, Джош Бролин, Арманд Ассанте, Роджер Гуэнвёр Смит, Руби Ди, Джон Хоукс, Юл Васкез

    Сюжет фильма:
    После смерти хозяина, Фрэнк Лукас, тихий водитель гарлемского преступного авторитета, решает создать собственную криминальную империю. Его специальность — героин, который он ввозит напрямую из Юго-Восточной Азии. Лукас считает себя бизнесменом и конкурирует с другими группировками по всем правилам рыночной экономики, предлагая более качественный продукт по более низкой цене. Зарабатывая миллион долларов в день и придерживаясь однажды установленных для себя правил игры, он становится идолом для всего Гарлема, но по следам Фрэнка уже идёт Ричи Робертс — редкий для Нью-Йорка образец честного полицейского, ненавидимого коллегами.



    Снималось в: США
    Киностудия: Imagine Entertainment, Relativity Media, Scott Free Productions, Universal Pictures
    Время просмотра: 02:36:49
    Перевод текста: Русский дублированный

    Файл
    Кодек для видео: H.264
    Качество фильма: HDRip-AVC 480p | iPhone
    Информация о видео: 640x460@852x460 (1.85:1) at 23.976 fps, AVC at 1289 kbps
    Информация о звуке:
    1: ААС 2.0 192 kbps - Русский дублированный
    2: ААС 2.0 192 kbps - Английский
    Субтитры: Английские

    MI

    General
    Complete name : C:CREATE480outAmerican Gangster.2007 (SD).m4v
    Format : MPEG-4
    Codec ID : M4V
    File size : 1.85 GiB
    Duration : 2h 36mn
    Overall bit rate mode : Variable
    Overall bit rate : 1 685 Kbps
    Movie name : Гангстер
    Performer : Ридли Скотт
    Genre : Drama
    Recorded date : UTC 2007-10-19 08:00:00
    Encoded date : UTC 2014-02-26 09:41:16
    Tagged date : UTC 2014-02-26 10:20:09
    Copyright : © 2007 Universal Studios. All Rights Reserved.
    Cover : Yes
    Comment : Это случилось однажды в Америке...
    sonm : American Gangster
    desc : После смерти хозяина, Фрэнк Лукас, тихий водитель гарлемского преступного авторитета, решает создать собственную криминальную империю. Его специальность — героин, который он ввозит напрямую из Юго-Восточной Азии.
    ldes : После смерти хозяина, Фрэнк Лукас, тихий водитель гарлемского преступного авторитета, решает создать собственную криминальную империю. Его специальность — героин, который он ввозит напрямую из Юго-Восточной Азии. Лукас считает себя бизнесменом и конкурирует с другими группировками по всем правилам рыночной экономики, предлагая более качественный продукт по более низкой цене. Зарабатывая миллион долларов в день и придерживаясь однажды установленных для себя правил игры, он становится идолом для всего Гарлема, но по следам Фрэнка уже идёт Ричи Робертс — редкий для Нью-Йорка образец честного полицейского, ненавидимого коллегами.
    stik : 9
    rtng : 0
    cnID : 276580832
    xid : Apple:vendor_id:2007-252156
    iTunEXTC : uk-movie|18|400|

    Video #1
    ID : 1
    Format : AVC
    Format/Info : Advanced Video Codec
    Format profile : Baseline@L3.0
    Format settings, CABAC : No
    Format settings, ReFrames : 2 frames
    Codec ID : avc1
    Codec ID/Info : Advanced Video Coding
    Duration : 2h 36mn
    Bit rate : 1 289 Kbps
    Maximum bit rate : 5 873 Kbps
    Width : 640 pixels
    Height : 460 pixels
    Display aspect ratio : 1.85:1
    Frame rate mode : Constant
    Frame rate : 23.976 fps
    Color space : YUV
    Chroma subsampling : 4:2:0
    Bit depth : 8 bits
    Scan type : Progressive
    Bits/(Pixel*Frame) : 0.183
    Stream size : 1.41 GiB (76%)
    Writing library : x264 core 140 r2377 40 929f149 tMod 8-bit@4:2:0 X86_64
    Encoding settings : cabac=0 / ref=2 / deblock=1:-2:-2 / analyse=0x1:0x131 / me=umh / subme=7 / psy=1 / fade_compensate=1.00 / psy_rd=1.00:0.05 / mixed_ref=1 / me_range=48 / chroma_me=1 / trellis=2 / 8x8dct=0 / cqm=0 / deadzone=21,11 / fast_pskip=0 / chroma_qp_offset=-3 / threads=12 / lookahead_threads=2 / sliced_threads=0 / nr=0 / decimate=0 / interlaced=0 / bluray_compat=0 / constrained_intra=0 / fgo=0 / bframes=0 / weightp=0 / keyint=250 / keyint_min=23 / scenecut=40 / intra_refresh=0 / rc_lookahead=120 / rc=crf / mbtree=1 / crf=19.0000 / qcomp=0.60 / qpmin=0:0:0 / qpmax=69:69:69 / qpstep=4 / vbv_maxrate=5000 / vbv_bufsize=5000 / crf_max=0.0 / nal_hrd=none / filler=0 / ip_ratio=1.40 / aq=4:0.90 / aq-sensitivity=10.00 / aq-factor=1.00:1.00:0.90 / aq2=0 / aq3=0
    Language : English
    Encoded date : UTC 2014-02-26 09:41:16
    Tagged date : UTC 2014-02-26 09:43:44
    Matrix coefficients : BT.709

    Video #2
    ID : 10
    Format : JPEG
    Codec ID : jpeg
    Duration : 2h 36mn
    Duration_LastFrame : -3mn 10s
    Bit rate mode : Variable
    Bit rate : 642 bps
    Width : 640 pixels
    Height : 345 pixels
    Display aspect ratio : 1.85:1
    Frame rate mode : Constant
    Frame rate : 0.002 fps
    Color space : YUV
    Chroma subsampling : 4:2:0
    Bit depth : 8 bits
    Compression mode : Lossy
    Bits/(Pixel*Frame) : 1.454
    Stream size : 627 KiB (0%)
    Language : English
    Encoded date : UTC 2014-02-26 10:17:08
    Tagged date : UTC 2014-02-26 10:17:08

    Audio #1
    ID : 2
    Format : AAC
    Format/Info : Advanced Audio Codec
    Format profile : LC
    Codec ID : 40
    Duration : 2h 36mn
    Bit rate mode : Variable
    Bit rate : 197 Kbps
    Maximum bit rate : 239 Kbps
    Channel(s) : 2 channels
    Channel positions : Front: L R
    Sampling rate : 48.0 KHz
    Compression mode : Lossy
    Stream size : 221 MiB (12%)
    Title : AAC Dub_ Blu_ray CEE
    Language : Russian
    Encoded date : UTC 2014-02-26 09:03:05
    Tagged date : UTC 2014-02-26 09:43:44

    Audio #2
    ID : 4
    Format : AAC
    Format/Info : Advanced Audio Codec
    Format profile : LC
    Codec ID : 40
    Duration : 2h 36mn
    Bit rate mode : Variable
    Bit rate : 192 Kbps
    Maximum bit rate : 235 Kbps
    Channel(s) : 2 channels
    Channel positions : Front: L R
    Sampling rate : 48.0 KHz
    Compression mode : Lossy
    Stream size : 219 MiB (12%)
    Language : English
    Encoded date : UTC 2014-02-26 09:19:58
    Tagged date : UTC 2014-02-26 09:43:44

    Text
    ID : 8
    Format : Timed Text
    Muxing mode : sbtl
    Codec ID : tx3g
    Duration : 2h 28mn
    Bit rate mode : Variable
    Bit rate : 86 bps
    Stream size : 93.0 KiB (0%)
    Language : English
    Encoded date : UTC 2014-02-26 09:43:44
    Tagged date : UTC 2014-02-26 09:43:44

    Menu #1
    00:00:00.000 : Chapter 1
    00:10:00.000 : Chapter 2
    00:20:00.000 : Chapter 3
    00:30:00.000 : Chapter 4
    00:40:00.000 : Chapter 5
    00:50:00.000 : Chapter 6
    01:00:00.000 : Chapter 7
    01:10:00.000 : Chapter 8
    01:20:00.000 : Chapter 9
    01:30:00.000 : Chapter 10
    01:40:00.000 : Chapter 11
    01:50:00.000 : Chapter 12
    02:00:00.000 : Chapter 13
    02:10:00.000 : Chapter 14
    02:20:00.000 : Chapter 15
    02:30:00.000 : Chapter 16

    Menu #2
    ID : 9
    Codec ID : text
    Duration : 2h 36mn
    Language : English
    Encoded date : UTC 2014-02-26 10:17:04
    Tagged date : UTC 2014-02-26 10:17:04
    Bit rate mode : VBR
    Duration_LastFrame : -190600
    iTunes Meta Tags

    Sort Name: The Colony
    XID: Apple:vendor_id:2013-420938
    contentID: 665545791
    Copyright: Alcina Pictures, Item 7, Mad Samurai Productions
    Screenwriters: Патрик Тарр, Паскаль Троттье, Джефф Ренфро
    Producers: Пол Баркин, Мэттью Керви, Пьер Ивен
    Director: Jeff Renfroe
    Cast: Кевин Зегерс, Лоренс Фишбёрн, Шарлотта Салливан, Билл Пэкстон, Аттикус Дин Митчелл, Дрю Вигевер, Джулиан Ричингс, Джон Тенч, Майкл Мэндо, Романо ОрцариLaurence Fishburne (Briggs), Kevin Zegers (Sam), Bill Paxton (Mason), John Tench (Viktor), Atticus Dean Mitchell (Graydon), Dru Viergever (Feral Leader), Romano Orzari (Reynolds), Earl Pastko (Scientist), Lisa Berry (Nara), Lucius Hoyos (Rowan), Michael Mando (Cooper), Eric Murdoch (Terrified Man), Kimberly-Sue Murray (Janelle), Julian Richings (Leland), Charlotte Sullivan (Kai)
    Studio: Alcina Pictures, Item 7, Mad Samurai Productions
    Rating: 0
    Long Deion: После природного катаклизма, под ледяной поверхностью, покрывшей Землю, оставшиеся в живых люди собрались в Колонию 7 и пытаются выжить несмотря на сокращающиеся запасы продовольствия. Они еще поддерживают связь с Колонией 5, но после того, как контакт с ними теряется, группа смельчаков отправляется в опасную экспедицию, чтобы выяснить, что произошло с их соседями. Преодолев тяжелейший путь герои сталкиваются с опасностью во много раз превосходящую природную угрозу холода…
    Deion: После природного катаклизма, под ледяной поверхностью, покрывшей Землю, оставшиеся в живых люди собрались в Колонию 7 и пытаются выжить несмотря на сокращающиеся запасы продовольствия.
    Release Date: 2013-09-20T07:00:00Z
    Genre: Sci-Fi Fantasy
    Comments: Они выжили после апокалипсиса. Но не только они
    Artist: Джефф Ренфро
    Name: Колония
    x264

    x264 info: frame I:3598 Avg QP:16.98 size: 21001
    x264 info: frame P:222002 Avg QP:19.95 size: 6486
    x264 info: mb I I16..4: 44.1% 0.0% 55.9%
    x264 info: mb P I16..4: 1.9% 0.0% 1.4% P16..4: 52.0% 15.2% 7.0% 0.9% 0.4% skip:21.2%
    x264 info: coded y,uvDC,uvAC intra: 43.4% 48.4% 18.5% inter: 28.8% 21.3% 5.2%
    x264 info: i16 v,h,dc,p: 49% 14% 9% 28%
    x264 info: i4 v,h,dc,ddl,ddr,vr,hd,vl,hu: 31% 14% 17% 6% 7% 9% 5% 7% 4%
    x264 info: i8c dc,h,v,p: 64% 12% 21% 4%
    x264 info: ref P L0: 74.8% 25.2%
    x264 info: kb/s:1288.53




    Залил: gekka
    Размер скачиваемого торрента: 1.85 GB (1982359963 Bytes)

    Гангстер / American Gangster (2007) HDRip-AVC | iPhone | D скачать через торрент бесплатно
    загрузка...
    Рейтинг →
     (голосов: 1, оценка 3/5, голосовать можно 1 раз )

    Другие торренты по теме:

  • Безымянный гангстер: По законам времени / Nameless gangster: Rules of the time / Bumchoiwaui Junjaeng (2012) BDRip | L1
  • Гангстер / Hoodlum (1997) HDTVRip | А
  • Господин, его жена и гангстер / Треугольник / Saheb Biwi Aur Gangster (2011) SATRip от Files-x | P
  • Я, гангстер / Mob Enforcer (2004) PC | Repack от R.G. UPG
  • Гражданин гангстер / Citizen Gangster (2011) HDRip | A
  • Гражданин гангстер / Citizen Gangster (2011) HDRip-AVC | A
  • Гражданин гангстер / Citizen Gangster (2011) BDRip 1080p | A
  • Гангстер №1 / Gangster No. 1 (2000) BDRip 1080 от -=HD-NET=-


    • Комментарии (0):

      Информация

      Информация

        Посетители, находящиеся в группе Гости, не могут оставлять комментарии в данной новости.

        ↓ Меню



        ↓ Опрос

        А Вы добавили сайт в закладки?
        Да
        Не


        Top 10 за месяц (Фильмы)