.
Авторизация | Регистрация
Хочешь лучшие торренты? Добавь свой email!
Добавить
» » Фоксфайр, признание банды девушек / Foxfire, confessions dun gang de filles (2012) BDRip-AVC | P2 скачать через торрент бесплатно




    Фоксфайр, признание банды девушек / Foxfire, confessions dun gang de filles (2012) BDRip-AVC | P2 скачать через торрент бесплатно

    Опубликовал: Админ | Дата: 27-02-2015, 11:10 | Просмотров: 197



    Детально о кино
    Русское название: Фоксфайр, признание банды девушек
    Русское название в мировом прокате: Foxfire, confessions d;un gang de filles
    Создали в: 2012
    Категория жанра: Драма, криминал
    Главный режиссер: Лоран Канте
    Актеры: Рэйвен Адамсон, Кэти Козени, Маделейн Биссон, Клэйр Мазеролле, Рэйчел Нихуус, Линдси Ролланд-Миллс, Тамара Хоуп, Эли Либерт

    Сюжет фильма:
    1955 год. В небольшом городке штата Нью-Йорк несколько молодых девушек, уставших от мужского шовинизма, решают организоваться в банду, которая будет жить по своим собственным правилам. Они называют себя Фоксфайр и идут дорогой возмездия, игнорируя законы страны и традиции общества.




    Снималось в: Франция, Канада
    Киностудия: Foxfire Productions, Lorette Distribution, The Film Farm…
    Время просмотра: 02:23:22
    Перевод текста: Профессиональное двухголосое (студия Elrom)

    Файл
    Кодек для видео: h.264, AVC
    Качество фильма: BDRip-AVC
    Информация о видео: AVC, 1024 x 436, ~1851 kbps
    Информация о звуке #1: Русский: AC-3, 2 ch, 192 kbps
    Информация о звуке #2: Английский: AC-3, 6 ch, 448 kbps
    Информация о звуке #3: Французский: AC-3, 6 ch, 448 kbps
    Субтитры: английские

    Семпл

    Скриншоты для ознакомления
    MI
    Общее
    Уникальный идентификатор : 168348648403719580577546155723716462494 (0x7EA6C532C2870C1E037BA147C20E879E)
    Полное имя : G:Фоксфайр, признание банды девушек Foxfire, confessions d;un gang de filles (2012) BDRip-AVCFoxfire.2012.BDRip-AVC..mkv
    Формат : Matroska
    Версия формата : Version 2
    Размер файла : 3,00 Гбайт
    Продолжительность : 2 ч. 23 м.
    Режим общего битрейта : Переменный
    Общий поток : 2999 Кбит/сек
    Программа кодирования : Lavf51.12.1
    Библиотека кодирования : Lavf51.12.1

    Видео
    Идентификатор : 1
    Формат : AVC
    Формат/Информация : Advanced Video Codec
    Профиль формата : Baseline@L3.1
    Параметр CABAC формата : Нет
    Параметр ReFrames формата : 1 кадр
    Параметр GOP формата : M=1, N=12
    Идентификатор кодека : V_MPEG4/ISO/AVC
    Продолжительность : 2 ч. 23 м.
    Вид битрейта : Переменный
    Битрейт : 1851 Кбит/сек
    Максимальный битрейт : 2850 Кбит/сек
    Ширина : 1024 пикселя
    Высота : 436 пикселей
    Соотношение сторон : 2,35:1
    Соотношение сторон в оригинале : 2,35:1
    Режим частоты кадров : Постоянный
    Частота кадров : 23,976 кадра/сек
    Частота кадров в оригинале : 24,000 кадра/сек
    Цветовое пространство : YUV
    Субдискретизация насыщенности : 4:2:0
    Битовая глубина : 8 бит
    Тип развёртки : Прогрессивная
    Бит/(Пиксели*Кадры) : 0.173
    Размер потока : 1,85 Гбайт (62%)
    Язык : French
    Default : Да
    Forced : Нет

    Аудио #1
    Идентификатор : 2
    Формат : AC-3
    Формат/Информация : Audio Coding 3
    Расширение режима : CM (complete main)
    Параметр Endianness формата : Big
    Идентификатор кодека : A_AC3
    Продолжительность : 2 ч. 23 м.
    Вид битрейта : Постоянный
    Битрейт : 192 Кбит/сек
    Каналы : 2 канала
    Расположение каналов : Front: L R
    Частота : 48,0 КГц
    Битовая глубина : 16 бит
    Метод сжатия : С потерями
    Размер потока : 197 Мбайт (6%)
    Язык : Russian
    Default : Да
    Forced : Нет

    Аудио #2
    Идентификатор : 4
    Формат : AC-3
    Формат/Информация : Audio Coding 3
    Расширение режима : CM (complete main)
    Параметр Endianness формата : Big
    Идентификатор кодека : A_AC3
    Продолжительность : 2 ч. 23 м.
    Вид битрейта : Постоянный
    Битрейт : 448 Кбит/сек
    Каналы : 6 каналов
    Расположение каналов : Front: L C R, Side: L R, LFE
    Частота : 48,0 КГц
    Битовая глубина : 16 бит
    Метод сжатия : С потерями
    Размер потока : 459 Мбайт (15%)
    Язык : English
    Default : Да
    Forced : Нет

    Аудио #3
    Идентификатор : 5
    Формат : AC-3
    Формат/Информация : Audio Coding 3
    Расширение режима : CM (complete main)
    Параметр Endianness формата : Big
    Идентификатор кодека : A_AC3
    Продолжительность : 2 ч. 23 м.
    Вид битрейта : Постоянный
    Битрейт : 448 Кбит/сек
    Каналы : 6 каналов
    Расположение каналов : Front: L C R, Side: L R, LFE
    Частота : 48,0 КГц
    Битовая глубина : 16 бит
    Метод сжатия : С потерями
    Размер потока : 459 Мбайт (15%)
    Язык : French
    Default : Да
    Forced : Нет

    Текст
    Идентификатор : 3
    Формат : UTF-8
    Идентификатор кодека : S_TEXT/UTF8
    Идентификатор кодека/Информация : UTF-8 Plain Text
    Язык : French
    Default : Да
    Forced : Нет

    Размер скачиваемого торрента: 3.00 GB (3224519710 Bytes)

    Фоксфайр, признание банды девушек / Foxfire, confessions dun gang de filles (2012) BDRip-AVC | P2 скачать через торрент бесплатно
    загрузка...
    Рейтинг →
     (голосов: 1, оценка 3/5, голосовать можно 1 раз )

    Другие торренты по теме:

  • Фоксфайр, признание банды девушек / Foxfire, confessions dun gang de filles (2012) BDRip 720p от CINEMANIA | P2 скачать через торрент бесплатно
  • Фоксфайр, признание банды девушек / Foxfire, confessions dun gang de filles (2012) BDRip 1080p от CINEMANIA | P2 скачать через торрент бесплатно
  • Фоксфайр, признание банды девушек / Foxfire, confessions dun gang de filles / Foxfire (2012) HDRip-AVC от New-Team | P2


    • Комментарии (0):

      Информация

      Информация

        Посетители, находящиеся в группе Гости, не могут оставлять комментарии в данной новости.

        ↓ Меню



        ↓ Опрос

        А Вы добавили сайт в закладки?
        Да
        Не


        Top 10 за месяц (Фильмы)