.
Авторизация | Регистрация
Хочешь лучшие торренты? Добавь свой email!
Добавить
» » Прометей / Prometheus (2012) BDRip 1080p от GORESEWAGE | 3D-Video | HSBS торрент скачать бесплатно




    Прометей / Prometheus (2012) BDRip 1080p от GORESEWAGE | 3D-Video | HSBS торрент скачать бесплатно

    Опубликовал: Админ | Дата: 27-02-2015, 11:10 | Просмотров: 236



    Русское название: Прометей
    Русское название в мировом прокате: Prometheus
    Создали в: 2012
    Снималось в: США, Великобритания
    Категория жанра: фантастика, триллер, приключения
    Время просмотра: 02:03:46
    Перевод текста 1: Профессиональный (дублированный) Rus
    Перевод текста 2: Авторский (одноголосый закадровый) Андрей Гаврилов
    Перевод текста 3: Авторский (одноголосый закадровый) Василий Горчаков
    Перевод текста 4: Любительский (одноголосый закадровый) Вячеслав zamez
    Перевод текста 5: Любительский (одноголосый закадровый) Алексей Матвеев (Doctor_Joker)
    Перевод текста 6: Профессиональный (дублированный) Ukr
    Оригинальная аудиодорожка: Английская
    Субтитры: Russian (Forced, Full BD, Full Евгений Воронин, Full 107miller, Full Stevvie, Full Алексей Матвеев (Doctor_Joker), Full Commentary #1, Full Commentary #2), Ukrainian (Forced, Full), английские (Full, SDH)
    Киностудия: Twentieth Century Fox, Dune Entertainment, Scott Free Productions

    Главный режиссёр: Ридли Скотт / Ridley Scott

    Актеры: Нуми Рапас, Майкл Фассбендер, Шарлиз Терон, Идрис Эльба, Гай Пирс, Логан Маршалл-Грин, Шон Харрис, Рейф Сполл, Иман Эллиотт, Бенедикт Вонг и др.

    Сюжет: В поисках сакрального знания группа учёных отправляется в самые тёмные и неизведанные чертоги вселенной. Именно там, в отдалённых мирах, находясь на пределе своих умственных и физических возможностей, им предстоит вступить в безжалостную схватку за будущее всего человечества…



    Sample

    Качество фильма: BDRip 1080p (PHD)
    Контейнер: MKV
    Тип видео 3D: Half SideBySide / Горизонтальная анаморфная стереопара
    Порядок ракурсов: левый ракурс первый
    Информация о видео кодек: MPEG-4 AVC Video
    Информация о звуке кодек: DTS / AC3
    Информация о видео: MPEG-4 AVC Video / 14000 kbps / 1920x1080p / 23,976 fps / 16:9 / High Profile 4.1
    Информация о звуке 1: Russian / DTS / 5.1 / 48 kHz / 768 kbps / 24-bit / Dub
    Информация о звуке 2: Russian / DTS / 5.1 / 48 kHz / 1536 kbps / 24-bit / AVO Андрей Гаврилов
    Информация о звуке 3: Russian / DTS / 5.1 / 48 kHz / 1536 kbps / 24-bit / AVO Василий Горчаков
    Информация о звуке 4: Russian / DTS / 5.1 / 48 kHz / 1536 kbps / 24-bit / VO Вячеслав zamez
    Информация о звуке 5: Russian / DTS / 5.1 / 48 kHz / 1536 kbps / 24-bit / VO Алексей Матвеев (Doctor_Joker)
    Информация о звуке 6: Ukrainian / AC3 / 5.1 / 48 kHz / 448 kbps / 16-bit / Dub
    Информация о звуке 7: English / DTS / 5.1 / 48 kHz / 1536 kbps / 24-bit / Original
    Информация о звуке 8: English / AC3 / 2.0 / 48 kHz / 224 kbps / 16-bit / Commentary by Ridley Scott
    Информация о звуке 9: English / AC3 / 2.0 / 48 kHz / 224 kbps / 16-bit / Commentary by Jon Spaihts Damon Lindelof
    Навигация по главам: да

    Дополнительная информация

    * За дорогу №2 thx Piratca Джосс, dunhill200, lexal2002, Chistobaev, LAVR, SavineX, Slimka, Daniel Rock, Pain_70, Guyver, pestel, GaryH, КириллВП, Linnan, эвоки, TvarYuri, Dr. Destructo, GansAn, farti, therox, Perusta, Anatoliy555, Loki1982, Bakuman, zetrob, chefchef, Architector44, _shurik_, avedon, rocky4, ZeDOK, shitman82, skrdma, _long_, Andrey_Tula, audiolubitel, eyrobot, kondratdoktor, myxamop, kix, denis_mgn_1987, Consul, skib, Rolly Tyler, fly32. Работа со звуком: Slimka.
    * За дорогу №3 thx пользователю, пожелавшиму остаться инкогнито.
    * За дорогу №4 thx Вячеслав zamez, Ясень Дэн 107miller.
    * За дорогу №5 thx Алексей Матвеев (Doctor_Joker) будулайроманов. Работа со звуком: Perevodman.
    * За сабы №3 thx Евгений Воронин
    * За сабы №4 thx Ясень Дэн 107miller.
    * За сабы №5 thx Stevvie.
    * За сабы №6 thx Алексей Матвеев (Doctor_Joker).

    Скриншоты для ознакомления

    MediaInfo
    C:/GORESEWAGE/Prometheus 3D 2012 BDRip 1080p HSBS GORESEWAGE.mkv
    General
    Unique ID : 177213126766028729613136409920435238281 (0x855201B99028FD23827EE7A9A775B589)
    Complete name : C:/GORESEWAGE/Prometheus 3D 2012 BDRip 1080p HSBS GORESEWAGE.mkv
    Format : Matroska
    Format version : Version 4 / Version 2
    File size : 20.5 GiB
    Duration : 2h 3mn
    Overall bit rate : 23.7 Mbps
    Movie name : Prometheus 3D 2012 BDRip 1080p HSBS GORESEWAGE
    Encoded date : UTC 2014-02-27 17:59:32
    Writing application : mkvmerge v6.1.0 (;Old Devil;) built on Mar 2 2013 14:32:37
    Writing library : libebml v1.3.0 libmatroska v1.4.0
    Attachment : Yes
    Video #1
    ID : 1
    Format : AVC
    Format/Info : Advanced Video Codec
    Format profile : High@L4.1
    Format settings, CABAC : Yes
    Format settings, ReFrames : 2 frames
    Codec ID : V_MPEG4/ISO/AVC
    Duration : 2h 3mn
    Bit rate : 14.0 Mbps
    Width : 1 920 pixels
    Height : 1 080 pixels
    Display aspect ratio : 16:9
    Frame rate mode : Constant
    Frame rate : 23.976 fps
    Color space : YUV
    Chroma subsampling : 4:2:0
    Bit depth : 8 bits
    Scan type : Progressive
    Bits/(Pixel*Frame) : 0.282
    Stream size : 12.1 GiB (59%)
    Title : Prometheus 3D 2012 BDRip 1080p HSBS GORESEWAGE
    Writing library : x264 core
    Language : English
    Default : Yes
    Forced : No
    Color primaries : BT.709
    Transfer characteristics : BT.709
    Matrix coefficients : BT.709
    Audio #2
    ID : 2
    Format : DTS
    Format/Info : Digital Theater Systems
    Mode : 16
    Format settings, Endianness : Big
    Codec ID : A_DTS
    Duration : 2h 3mn
    Bit rate mode : Constant
    Bit rate : 768 Kbps
    Channel count : 6 channels
    Channel positions : Front: L C R, Side: L R, LFE
    Sampling rate : 48.0 KHz
    Bit depth : 24 bits
    Compression mode : Lossy
    Stream size : 680 MiB (3%)
    Title : Dub
    Language : Russian
    Default : Yes
    Forced : No
    Audio #3
    ID : 3
    Format : DTS
    Format/Info : Digital Theater Systems
    Mode : 16
    Format settings, Endianness : Big
    Codec ID : A_DTS
    Duration : 2h 3mn
    Bit rate mode : Constant
    Bit rate : 1 509 Kbps
    Channel count : 6 channels
    Channel positions : Front: L C R, Side: L R, LFE
    Sampling rate : 48.0 KHz
    Bit depth : 24 bits
    Compression mode : Lossy
    Stream size : 1.30 GiB (6%)
    Title : AVO Андрей Гаврилов
    Language : Russian
    Default : No
    Forced : No
    Audio #4
    ID : 4
    Format : DTS
    Format/Info : Digital Theater Systems
    Mode : 16
    Format settings, Endianness : Big
    Codec ID : A_DTS
    Duration : 2h 3mn
    Bit rate mode : Constant
    Bit rate : 1 509 Kbps
    Channel count : 6 channels
    Channel positions : Front: L C R, Side: L R, LFE
    Sampling rate : 48.0 KHz
    Bit depth : 24 bits
    Compression mode : Lossy
    Stream size : 1.30 GiB (6%)
    Title : AVO Василий Горчаков
    Language : Russian
    Default : No
    Forced : No
    Audio #5
    ID : 5
    Format : DTS
    Format/Info : Digital Theater Systems
    Mode : 16
    Format settings, Endianness : Big
    Codec ID : A_DTS
    Duration : 2h 3mn
    Bit rate mode : Constant
    Bit rate : 1 509 Kbps
    Channel count : 6 channels
    Channel positions : Front: L C R, Side: L R, LFE
    Sampling rate : 48.0 KHz
    Bit depth : 24 bits
    Compression mode : Lossy
    Stream size : 1.30 GiB (6%)
    Title : VO Вячеслав zamez
    Language : Russian
    Default : No
    Forced : No
    Audio #6
    ID : 6
    Format : DTS
    Format/Info : Digital Theater Systems
    Mode : 16
    Format settings, Endianness : Big
    Codec ID : A_DTS
    Duration : 2h 3mn
    Bit rate mode : Constant
    Bit rate : 1 509 Kbps
    Channel count : 6 channels
    Channel positions : Front: L C R, Side: L R, LFE
    Sampling rate : 48.0 KHz
    Bit depth : 24 bits
    Compression mode : Lossy
    Stream size : 1.30 GiB (6%)
    Title : VO Алексей Матвеев (Doctor_Joker)
    Language : Russian
    Default : No
    Forced : No
    Audio #7
    ID : 7
    Format : AC-3
    Format/Info : Audio Coding 3
    Mode extension : CM (complete main)
    Format settings, Endianness : Big
    Codec ID : A_AC3
    Duration : 2h 3mn
    Bit rate mode : Constant
    Bit rate : 448 Kbps
    Channel count : 6 channels
    Channel positions : Front: L C R, Side: L R, LFE
    Sampling rate : 48.0 KHz
    Bit depth : 16 bits
    Compression mode : Lossy
    Stream size : 397 MiB (2%)
    Title : Dub
    Language : Ukrainian
    Default : No
    Forced : No
    Audio #8
    ID : 8
    Format : DTS
    Format/Info : Digital Theater Systems
    Mode : 16
    Format settings, Endianness : Big
    Codec ID : A_DTS
    Duration : 2h 3mn
    Bit rate mode : Constant
    Bit rate : 1 509 Kbps
    Channel count : 6 channels
    Channel positions : Front: L C R, Side: L R, LFE
    Sampling rate : 48.0 KHz
    Bit depth : 24 bits
    Compression mode : Lossy
    Stream size : 1.30 GiB (6%)
    Title : Original
    Language : English
    Default : No
    Forced : No
    Audio #9
    ID : 9
    Format : AC-3
    Format/Info : Audio Coding 3
    Mode extension : CM (complete main)
    Format settings, Endianness : Big
    Codec ID : A_AC3
    Duration : 2h 3mn
    Bit rate mode : Constant
    Bit rate : 224 Kbps
    Channel count : 2 channels
    Channel positions : Front: L R
    Sampling rate : 48.0 KHz
    Bit depth : 16 bits
    Compression mode : Lossy
    Stream size : 198 MiB (1%)
    Title : Commentary by Ridley Scott
    Language : English
    Default : No
    Forced : No
    Audio #10
    ID : 10
    Format : AC-3
    Format/Info : Audio Coding 3
    Mode extension : CM (complete main)
    Format settings, Endianness : Big
    Codec ID : A_AC3
    Duration : 2h 3mn
    Bit rate mode : Constant
    Bit rate : 224 Kbps
    Channel count : 2 channels
    Channel positions : Front: L R
    Sampling rate : 48.0 KHz
    Bit depth : 16 bits
    Compression mode : Lossy
    Stream size : 198 MiB (1%)
    Title : Commentary by Jon Spaihts Damon Lindelof
    Language : English
    Default : No
    Forced : No
    Text #11
    ID : 11
    Format : UTF-8
    Codec ID : S_TEXT/UTF8
    Codec ID/Info : UTF-8 Plain Text
    Title : Forced
    Language : Russian
    Default : Yes
    Forced : No
    Text #12
    ID : 12
    Format : UTF-8
    Codec ID : S_TEXT/UTF8
    Codec ID/Info : UTF-8 Plain Text
    Title : Full BD
    Language : Russian
    Default : No
    Forced : No
    Text #13
    ID : 13
    Format : UTF-8
    Codec ID : S_TEXT/UTF8
    Codec ID/Info : UTF-8 Plain Text
    Title : Full Евгений Воронин
    Language : Russian
    Default : No
    Forced : No
    Text #14
    ID : 14
    Format : UTF-8
    Codec ID : S_TEXT/UTF8
    Codec ID/Info : UTF-8 Plain Text
    Title : Full 107miller
    Language : Russian
    Default : No
    Forced : No
    Text #15
    ID : 15
    Format : UTF-8
    Codec ID : S_TEXT/UTF8
    Codec ID/Info : UTF-8 Plain Text
    Title : Full Stevvie
    Language : Russian
    Default : No
    Forced : No
    Text #16
    ID : 16
    Format : UTF-8
    Codec ID : S_TEXT/UTF8
    Codec ID/Info : UTF-8 Plain Text
    Title : Full Алексей Матвеев (Doctor_Joker)
    Language : Russian
    Default : No
    Forced : No
    Text #17
    ID : 17
    Format : UTF-8
    Codec ID : S_TEXT/UTF8
    Codec ID/Info : UTF-8 Plain Text
    Title : Full Commentary Ridley Scott
    Language : Russian
    Default : No
    Forced : No
    Text #18
    ID : 18
    Format : UTF-8
    Codec ID : S_TEXT/UTF8
    Codec ID/Info : UTF-8 Plain Text
    Title : Full Commentary Jon Spaihts Damon Lindelof
    Language : Russian
    Default : No
    Forced : No
    Text #19
    ID : 19
    Format : UTF-8
    Codec ID : S_TEXT/UTF8
    Codec ID/Info : UTF-8 Plain Text
    Title : Forced
    Language : Ukrainian
    Default : No
    Forced : No
    Text #20
    ID : 20
    Format : UTF-8
    Codec ID : S_TEXT/UTF8
    Codec ID/Info : UTF-8 Plain Text
    Title : Full BD
    Language : Ukrainian
    Default : No
    Forced : No
    Text #21
    ID : 21
    Format : UTF-8
    Codec ID : S_TEXT/UTF8
    Codec ID/Info : UTF-8 Plain Text
    Title : Full
    Language : English
    Default : No
    Forced : No
    Text #22
    ID : 22
    Format : UTF-8
    Codec ID : S_TEXT/UTF8
    Codec ID/Info : UTF-8 Plain Text
    Title : SDH
    Language : English
    Default : No
    Forced : No
    Menu
    00:00:00.000 : en:00:00:00.000
    00:05:13.146 : en:00:05:13.146
    00:07:44.881 : en:00:07:44.881
    00:11:31.524 : en:00:11:31.524
    00:15:09.784 : en:00:15:09.784
    00:20:04.912 : en:00:20:04.912
    00:22:32.810 : en:00:22:32.810
    00:27:43.120 : en:00:27:43.120
    00:31:57.833 : en:00:31:57.833
    00:34:10.840 : en:00:34:10.840
    00:37:53.229 : en:00:37:53.229
    00:40:45.360 : en:00:40:45.360
    00:45:49.330 : en:00:45:49.330
    00:48:47.925 : en:00:48:47.925
    00:50:23.062 : en:00:50:23.062
    00:53:56.400 : en:00:53:56.400
    00:56:32.222 : en:00:56:32.222
    00:59:31.610 : en:00:59:31.610
    01:01:29.185 : en:01:01:29.185
    01:04:17.562 : en:01:04:17.562
    01:06:01.457 : en:01:06:01.457
    01:08:57.884 : en:01:08:57.884
    01:11:13.519 : en:01:11:13.519
    01:15:10.631 : en:01:15:10.631
    01:17:06.038 : en:01:17:06.038
    01:25:02.306 : en:01:25:02.306
    01:27:09.349 : en:01:27:09.349
    01:30:10.363 : en:01:30:10.363
    01:32:43.725 : en:01:32:43.725
    01:35:23.134 : en:01:35:23.134
    01:37:46.861 : en:01:37:46.861
    01:40:46.374 : en:01:40:46.374
    01:43:46.220 : en:01:43:46.220
    01:48:28.794 : en:01:48:28.794
    01:52:08.096 : en:01:52:08.096
    01:58:06.288 : en:01:58:06.288

    Размер скачиваемого торрента: 20.49 GB (21997797445 Bytes)

    Прометей / Prometheus (2012) BDRip 1080p от GORESEWAGE | 3D-Video | HSBS торрент скачать бесплатно
    загрузка...
    Рейтинг →
     (голосов: 1, оценка 5/5, голосовать можно 1 раз )

    Другие торренты по теме:

  • Прометей / Prometheus (2012) BDRip 1080p | 60 fps
  • Мэри Шелли - Франкенштейн, или Современный Прометей (2010) MP3
  • Прометей / Prometheus (2012) BDRip 720p | 60 fps | D, A скачать через торрент бесплатно
  • Прометей / Prometheus (2012) BDRip 1080p | FAN Cut скачать через торрент бесплатно
  • OST - Прометей / Prometheus (Expanded) (2012) MP3 скачать через торрент бесплатно
  • Прометей / Prometheus (2012) BDRip 1080p от GORESEWAGE | 3D-Video
  • Прометей / Prometheus (2012) BDRemux 1080p от GORESEWAGE
  • Прометей / Prometheus (2012) BDRip 1080p от GORESEWAGE


    • Комментарии (0):

      Информация

      Информация

        Посетители, находящиеся в группе Гости, не могут оставлять комментарии в данной новости.

        ↓ Меню



        ↓ Опрос

        А Вы добавили сайт в закладки?
        Да
        Не


        Top 10 за месяц (Фильмы)