.
Авторизация | Регистрация
Хочешь лучшие торренты? Добавь свой email!
Добавить
» » Восставший из ада 2 / Hellbound: Hellraiser II / (1988) BDRip by msltel | P, P2, A торрент скачать бесплатно




    Восставший из ада 2 / Hellbound: Hellraiser II / (1988) BDRip by msltel | P, P2, A торрент скачать бесплатно

    Опубликовал: Админ | Дата: 27-02-2015, 11:10 | Просмотров: 329



    Русское название: Восставший из ада 2
    Русское название в мировом прокате: Hellbound: Hellraiser 2
    Создали в: 1988
    Категория жанра: Ужасы, триллер
    Снималось в: Великобритания, Film Futures, New World Pictures, Troopstar
    Главный режиссер: Тони Рэндел
    Актеры: Клэр Хиггинс, Эшли Лоуренс, Кеннет Крэнэм, Имоджен Бурман, Шон Чэпман, Уильям Хоуп, Даг Брэдли, Барби Вильде, Саймон Бэмфорд, Николас Винс

    Сюжет фильма: В наш мир возвращается мачеха Кристины Джулия, сгинувшая в геенне огненной в финале первой части фильма. Для восстановления своего физического облика ей приходится использовать те же малоприглядные средства, что и, в своё время, Фрэнку. В это же время Кристина, содержащаяся в психиатрической лечебнице, решает спасти своего томящегося в потусторонней неволе отца, для чего ей снова необходимо проникнуть за ту не всегда видимую и не всегда прочную грань, которая отделяет мир живых от мира не очень живых... Экранизация одноименной книги Клайва Баркера.

    Качество фильма: BDRip
    Размер скачиваемого торрента: 3.36 ГБ
    Время просмотра: 01:39:03

    Информация о видео: XviD, 1900 Kбит/с, 720x384
    Информация о звуке 1: русский, 48 kHz, AC3, 6 ch, 384 kbps avg, Профессиональный многоголосый, West Video
    Информация о звуке 2: русский, 48 kHz, AC3, 6 ch, 448 kbps avg, Профессиональный двухголосый, Пётр Гланц и Инна Королёва

    Внешние файлы
    Информация о звуке: русский, 48 kHz, AC3, 6 ch, 448 kbps avg, Профессиональный двухголосый, DDV
    Информация о звуке: русский, 48 kHz, AC3, 6 ch, 384 kbps avg, Авторский, Андрей Гаврилов (DVD West Video)
    Информация о звуке: русский, 48 kHz, AC3, 2 ch, 192 kbps avg, Авторский, Андрей Гаврилов, (VHS)
    Информация о звуке: русский, 48 kHz, AC3, 6 ch, 448 kbps avg, Авторский, Василий Горчаков
    Информация о звуке: русский, 48 kHz, AC3, 2 ch, 192 kbps avg, Авторский, Юрий Живов
    Информация о звуке: английский, 48 kHz, AC3, 6 ch, 448 kbps avg, Оригинал
    Субтитры: русские (вариант 1)
    Субтитры: русские (вариант 2)
    Субтитры: английские

    Имеются неименованные главы/чаптеры.

    Исходник: Marchik60 (Кинозал)

    Сравнение с исходником



    Награды
    Сатурн, 1990 год
    Победитель (1):
    Лучшая музыка

    Номинации (2):
    Лучший фильм ужасов
    Лучшая актриса второго плана (Клэр Хиггинс)
    MediaInfo
    Общее
    Полное имя : D:VideoVosstavshij iz ada 2.1988.XviD.BDRipVosstavshij iz ada 2.1988.AVO.rus.Андрей Гаврилов (DVD West Video).ac3
    Формат : AC-3
    Формат/Информация : Audio Coding 3
    Размер файла : 272 Мбайт
    Продолжительность : 1 ч. 39 м.
    Режим общего битрейта : Постоянный
    Общий поток : 384 Кбит/сек

    Аудио
    Формат : AC-3
    Формат/Информация : Audio Coding 3
    Расширение режима : CM (complete main)
    Параметр Endianness формата : Big
    Продолжительность : 1 ч. 39 м.
    Вид битрейта : Постоянный
    Битрейт : 384 Кбит/сек
    Каналы : 6 каналов
    Расположение каналов : Front: L C R, Side: L R, LFE
    Частота : 48,0 КГц
    Битовая глубина : 16 бит
    Метод сжатия : С потерями
    Размер потока : 272 Мбайт (100%)

    Общее
    Полное имя : D:VideoVosstavshij iz ada 2.1988.XviD.BDRipVosstavshij iz ada 2.1988.AVO.rus.Андрей Гаврилов (VHS).ac3
    Формат : AC-3
    Формат/Информация : Audio Coding 3
    Размер файла : 136 Мбайт
    Продолжительность : 1 ч. 39 м.
    Режим общего битрейта : Постоянный
    Общий поток : 192 Кбит/сек

    Аудио
    Формат : AC-3
    Формат/Информация : Audio Coding 3
    Расширение режима : CM (complete main)
    Параметр Endianness формата : Big
    Продолжительность : 1 ч. 39 м.
    Вид битрейта : Постоянный
    Битрейт : 192 Кбит/сек
    Каналы : 2 канала
    Расположение каналов : Front: L R
    Частота : 48,0 КГц
    Битовая глубина : 16 бит
    Метод сжатия : С потерями
    Размер потока : 136 Мбайт (100%)

    Общее
    Полное имя : D:VideoVosstavshij iz ada 2.1988.XviD.BDRipVosstavshij iz ada 2.1988.AVO.rus.Василий Горчаков.ac3
    Формат : AC-3
    Формат/Информация : Audio Coding 3
    Размер файла : 317 Мбайт
    Продолжительность : 1 ч. 39 м.
    Режим общего битрейта : Постоянный
    Общий поток : 448 Кбит/сек

    Аудио
    Формат : AC-3
    Формат/Информация : Audio Coding 3
    Расширение режима : CM (complete main)
    Параметр Endianness формата : Big
    Продолжительность : 1 ч. 39 м.
    Вид битрейта : Постоянный
    Битрейт : 448 Кбит/сек
    Каналы : 6 каналов
    Расположение каналов : Front: L C R, Side: L R, LFE
    Частота : 48,0 КГц
    Битовая глубина : 16 бит
    Метод сжатия : С потерями
    Размер потока : 317 Мбайт (100%)

    Общее
    Полное имя : D:VideoVosstavshij iz ada 2.1988.XviD.BDRipVosstavshij iz ada 2.1988.AVO.rus.Юрий Живов.ac3
    Формат : AC-3
    Формат/Информация : Audio Coding 3
    Размер файла : 136 Мбайт
    Продолжительность : 1 ч. 39 м.
    Режим общего битрейта : Постоянный
    Общий поток : 192 Кбит/сек

    Аудио
    Формат : AC-3
    Формат/Информация : Audio Coding 3
    Расширение режима : CM (complete main)
    Параметр Endianness формата : Big
    Продолжительность : 1 ч. 39 м.
    Вид битрейта : Постоянный
    Битрейт : 192 Кбит/сек
    Каналы : 2 канала
    Расположение каналов : Front: L R
    Частота : 48,0 КГц
    Битовая глубина : 16 бит
    Метод сжатия : С потерями
    Размер потока : 136 Мбайт (100%)

    Общее
    Полное имя : D:VideoVosstavshij iz ada 2.1988.XviD.BDRipVosstavshij iz ada 2.1988.DVO.rus.DDV.ac3
    Формат : AC-3
    Формат/Информация : Audio Coding 3
    Размер файла : 317 Мбайт
    Продолжительность : 1 ч. 39 м.
    Режим общего битрейта : Постоянный
    Общий поток : 448 Кбит/сек

    Аудио
    Формат : AC-3
    Формат/Информация : Audio Coding 3
    Расширение режима : CM (complete main)
    Параметр Endianness формата : Big
    Продолжительность : 1 ч. 39 м.
    Вид битрейта : Постоянный
    Битрейт : 448 Кбит/сек
    Каналы : 6 каналов
    Расположение каналов : Front: L C R, Side: L R, LFE
    Частота : 48,0 КГц
    Битовая глубина : 16 бит
    Метод сжатия : С потерями
    Размер потока : 317 Мбайт (100%)

    Общее
    Полное имя : D:VideoVosstavshij iz ada 2.1988.XviD.BDRipVosstavshij iz ada 2.1988.eng.srt
    Формат : SubRip
    Размер файла : 30,0 Кбайт

    Текст
    Формат : SubRip
    Метод сжатия : Без потерь

    Общее
    Полное имя : D:VideoVosstavshij iz ada 2.1988.XviD.BDRipVosstavshij iz ada 2.1988.Original.eng.ac3
    Формат : AC-3
    Формат/Информация : Audio Coding 3
    Размер файла : 317 Мбайт
    Продолжительность : 1 ч. 39 м.
    Режим общего битрейта : Постоянный
    Общий поток : 448 Кбит/сек

    Аудио
    Формат : AC-3
    Формат/Информация : Audio Coding 3
    Расширение режима : CM (complete main)
    Параметр Endianness формата : Big
    Продолжительность : 1 ч. 39 м.
    Вид битрейта : Постоянный
    Битрейт : 448 Кбит/сек
    Каналы : 6 каналов
    Расположение каналов : Front: L C R, Side: L R, LFE
    Частота : 48,0 КГц
    Битовая глубина : 16 бит
    Метод сжатия : С потерями
    Размер потока : 317 Мбайт (100%)

    Общее
    Полное имя : D:VideoVosstavshij iz ada 2.1988.XviD.BDRipVosstavshij iz ada 2.1988.rus.вариант 1.srt
    Формат : SubRip
    Размер файла : 43,8 Кбайт

    Текст
    Формат : SubRip
    Метод сжатия : Без потерь

    Общее
    Полное имя : D:VideoVosstavshij iz ada 2.1988.XviD.BDRipVosstavshij iz ada 2.1988.rus.вариант 2.srt
    Формат : SubRip
    Размер файла : 43,7 Кбайт

    Текст
    Формат : SubRip
    Метод сжатия : Без потерь

    Общее
    Полное имя : D:VideoVosstavshij iz ada 2.1988.XviD.BDRipVosstavshij iz ada 2.1988.XviD.BDRip.avi
    Формат : AVI
    Формат/Информация : Audio Video Interleave
    Размер файла : 1,90 Гбайт
    Продолжительность : 1 ч. 39 м.
    Общий поток : 2746 Кбит/сек
    Программа кодирования : VirtualDubMod 1.5.10.2 (build 2540/release)
    Библиотека кодирования : VirtualDubMod build 2540/release

    Видео
    Идентификатор : 0
    Формат : MPEG-4 Visual
    Профиль формата : Advanced Simple@L5
    Параметр BVOP формата : 1
    Параметр QPel формата : Нет
    Параметр GMC формата : Без точки перехода
    Параметр матрицы формата : Default (H.263)
    Режим смешивания : Сжатый битовый поток
    Идентификатор кодека : XVID
    Идентификатор кодека/Подсказка : XviD
    Продолжительность : 1 ч. 39 м.
    Битрейт : 1900 Кбит/сек
    Ширина : 720 пикселей
    Высота : 384 пикселя
    Соотношение сторон : 1,85:1
    Частота кадров : 23,976 кадра/сек
    Цветовое пространство : YUV
    Субдискретизация насыщенности : 4:2:0
    Битовая глубина : 8 бит
    Тип развёртки : Прогрессивная
    Метод сжатия : С потерями
    Бит/(Пиксели*Кадры) : 0.287
    Размер потока : 1,31 Гбайт (69%)
    Библиотека кодирования : XviD 1.2.1 (UTC 2008-12-04)

    Аудио #1
    Идентификатор : 1
    Формат : AC-3
    Формат/Информация : Audio Coding 3
    Расширение режима : CM (complete main)
    Параметр Endianness формата : Big
    Идентификатор кодека : 2000
    Продолжительность : 1 ч. 39 м.
    Вид битрейта : Постоянный
    Битрейт : 384 Кбит/сек
    Каналы : 6 каналов
    Расположение каналов : Front: L C R, Side: L R, LFE
    Частота : 48,0 КГц
    Битовая глубина : 16 бит
    Метод сжатия : С потерями
    Размер потока : 272 Мбайт (14%)
    Выравнивание : Разделение по промежуткам
    Продолжительность промежутка : 42 мс. (1,00 видеокадр)
    Время предзагрузки промежутка : 500 мс.

    Аудио #2
    Идентификатор : 2
    Формат : AC-3
    Формат/Информация : Audio Coding 3
    Расширение режима : CM (complete main)
    Параметр Endianness формата : Big
    Идентификатор кодека : 2000
    Продолжительность : 1 ч. 39 м.
    Вид битрейта : Постоянный
    Битрейт : 448 Кбит/сек
    Каналы : 6 каналов
    Расположение каналов : Front: L C R, Side: L R, LFE
    Частота : 48,0 КГц
    Битовая глубина : 16 бит
    Метод сжатия : С потерями
    Размер потока : 317 Мбайт (16%)
    Выравнивание : Разделение по промежуткам
    Продолжительность промежутка : 42 мс. (1,00 видеокадр)
    Время предзагрузки промежутка : 500 мс.
    Скриншоты для ознакомления



    Залил: msltel
    Размер скачиваемого торрента: 3.36 GB (3609636375 Bytes)

    Восставший из ада 2 / Hellbound: Hellraiser II / (1988) BDRip by msltel | P, P2, A торрент скачать бесплатно
    загрузка...
    Рейтинг →
     (голосов: 1, оценка 3/5, голосовать можно 1 раз )

    Другие торренты по теме:

  • Восставший из ада 3: Ад на Земле / Hellraiser III: Hell on Earth (1992) BDRip
  • Восставший из ада 3: Ад на Земле / Hellraiser III: Hell on Earth (1992) BDRemux 1080p скачать через торрент бесплатно
  • Восставший из ада 4: Кровное родство / Hellraiser: Bloodline (1996) BDRip-AVC | P, A скачать через торрент бесплатно
  • Восставший из ада 3: Ад на Земле / Hellraiser III: Hell on Earth (1992) BDRip-AVC | P, A скачать через торрент бесплатно
  • Восставший из ада 2 / Hellbound: Hellraiser 2 (1988) BDRip-AVC | P, A скачать через торрент бесплатно
  • Восставший из ада / Hellraiser (1987) BDRip-AVC | P, A скачать через торрент бесплатно
  • Восставший из ада 2 / Hellbound: Hellraiser II / (1988) BDRip 720p by msltel | P, P2, A
  • Восставший из ада 4: Кровное родство / Hellraiser: Bloodline (1996) BDRip by msltel | P, A скачать через торрент бесплатно


    • Комментарии (0):

      Информация

      Информация

        Посетители, находящиеся в группе Гости, не могут оставлять комментарии в данной новости.

        ↓ Меню



        ↓ Опрос

        А Вы добавили сайт в закладки?
        Да
        Не


        Top 10 за месяц (Фильмы)