.
Авторизация | Регистрация
» » Муж двух жен / Run for Your Wife (2012) DVDRip от New-Team | P | лицензия торрент скачать бесплатно




    Муж двух жен / Run for Your Wife (2012) DVDRip от New-Team | P | лицензия торрент скачать бесплатно

    Опубликовал: Админ | Дата: 27-02-2015, 11:10 | Просмотров: 262

    John Loved Having a Wife So Much, He Got Two of Them



    Снималось в: Великобритания / Run For Your Wife Film

    Категория жанра: комедия
    Создали в: 2012
    Время просмотра: 01:29:48
    Перевод текста: Профессиональный (многоголосый закадровый)
    Субтитры подготовлены: нет
    Оригинальная аудиодорожка: нет

    Главный режиссер: Рэй Куни / Ray Cooney, Джон Лутон / John Luton

    Актеры: Дэнни Дайер, Дениз Ван Оутен, Сара Хардинг, Нил Мориссей, Келли Ширли, Кристофер Биггинс, Лайонел Блэр, Николя Ле Прево, Бен Картрайт, Дерек Гриффитс...

    Сюжет: Жизнь таксиста Джона Смита удалась! Он — самый счастливый человек на земле, и перспективы на будущее у него самые радужные. Все меняется в одночасье, когда при защите бездомной женщины от хулиганов его избивают. Джон не приходит вечером домой, и его жена Стефани обращается в полицию. Проблема в том, что одновременно в полицию обращается. .. его другая жена Мишель! Теперь Джону нужно приложить все усилия, чтобы полиция не узнала о его двоеженстве. Но есть задача и посложнее: не дать женам понять, что муж у них — один на двоих.



    Качество фильма: DVDRip / DVD5 R5
    Тип видео: AVI

    Информация о видео: 720x304 (2.35:1), 25.000 fps, XviD ~ 2057 kbps avg, 0.376 bit/pixel
    Информация о звуке: 48 kHz, Dolby AC3, 6 ch, 256 kbps, русский

    Раздача от:
    MediaInfo

    Общее
    Полное имя : Muzh.dvuh.zhen.2012.P.DVDRip_New-Team_by_avproh.avi
    Формат : AVI
    Формат/Информация : Audio Video Interleave
    Размер файла : 1,46 Гбайт
    Продолжительность : 1 ч. 29 м.
    Общий поток : 2322 Кбит/сек
    Программа кодирования : VirtualDubMod 1.5.10.3 | www.virtualdub-fr.org || (build 2550/release)
    Библиотека кодирования : VirtualDubMod build 2550/release

    Видео
    Идентификатор : 0
    Формат : MPEG-4 Visual
    Профиль формата : Advanced Simple@L5
    Параметр BVOP формата : 1
    Параметр QPel формата : Нет
    Параметр GMC формата : Без точки перехода
    Параметр матрицы формата : Выборочная
    Идентификатор кодека : XVID
    Идентификатор кодека/Подсказка : XviD
    Продолжительность : 1 ч. 29 м.
    Битрейт : 2057 Кбит/сек
    Ширина : 720 пикселей
    Высота : 304 пикселя
    Соотношение сторон : 2,35:1
    Частота кадров : 25,000 кадров/сек
    Цветовое пространство : YUV
    Субдискретизация насыщенности : 4:2:0
    Битовая глубина : 8 бит
    Тип развёртки : Прогрессивная
    Метод сжатия : С потерями
    Бит/(Пиксели*Кадры) : 0.376
    Размер потока : 1,29 Гбайт (89%)
    Библиотека кодирования : XviD 73

    Аудио
    Идентификатор : 1
    Формат : AC-3
    Формат/Информация : Audio Coding 3
    Расширение режима : CM (complete main)
    Параметр Endianness формата : Big
    Идентификатор кодека : 2000
    Продолжительность : 1 ч. 29 м.
    Вид битрейта : Постоянный
    Битрейт : 256 Кбит/сек
    Каналы : 6 каналов
    Расположение каналов : Front: L C R, Side: L R, LFE
    Частота : 48,0 КГц
    Битовая глубина : 16 бит
    Метод сжатия : С потерями
    Размер потока : 164 Мбайт (11%)
    Выравнивание : Разделение по промежуткам
    Продолжительность промежутка : 40 мс. (1,00 видеокадр)
    Время предзагрузки промежутка : 500 мс.

    Скриншоты для ознакомления:



    Резервные скриншоты:



    Залил: avproh
    Размер скачиваемого торрента: 1.46 GB (1564098560 Bytes)

    Муж двух жен / Run for Your Wife (2012) DVDRip от New-Team | P | лицензия торрент скачать бесплатно
    загрузка...
    Рейтинг →
     (голосов: 1, оценка 5/5, голосовать можно 1 раз )

    Другие торренты по теме:

  • Муж двух жен / Run for Your Wife (2012) DVD5 R5 от New-Team | P | лицензия торрент скачать бесплатно
  • Муж двух жен / Run for Your Wife (2012) DVDRip-AVC от New-Team | P | лицензия торрент скачать бесплатно
  • Муж двух жен / Run for Your Wife (2012) DVDRip от Sanjar NeoJet | КПК | Лицензия торрент скачать бесплатно


    • Комментарии (0):

      Информация

      Информация

        Посетители, находящиеся в группе Гости, не могут оставлять комментарии в данной новости.

        ↓ Меню



        ↓ Опрос

        А Вы добавили сайт в закладки?
        Да
        Не


        Top 10 за неделю (Фильмы)

        Мой парень – киллер / Mr. Right (2015) WEB-DL 1080p | L скачать торрент бесплатно

        (просмотров: 331)
        Ёлки 5 (2016) WEB-DLRip скачать торрент бесплатно

        (просмотров: 331)
        Разрушение / Demolition (2015) BDRemux 1080p от ExKinoRay | L скачать торрент бесплатно

        (просмотров: 301)
        Экипаж (2016) BDRip от New-Team | D | Лицензия скачать торрент бесплатно
        АНОНСЫ МОИХ РАЗДАЧ
        (просмотров: 301)
        Экипаж (2016) BDRip от New-Team | D | Лицензия скачать торрент бесплатно
        АНОНСЫ МОИХ РАЗДАЧ
        (просмотров: 271)
        Гений / Genius (2016) WEB-DLRip 1080p | Звук TS скачать торрент бесплатно

        (просмотров: 161)
        Кухня (1-5 сезоны: 1-100 серии из 100 + 2 бонуса) / 2012-2015 / РУ / DVDRip, WEB-DLRip скачать торрент бесплатно

        (просмотров: 151)
        Кухня (2015) SATRip скачать торрент бесплатно
        Кухня ? Кухня (2015) SATRip скачать торрент бесплатно
        (просмотров: 141)
        Дуэлянт (2016) WEB-DLRip от Scarabey | iTunes скачать торрент бесплатно

        (просмотров: 131)
        Демон внутри / Вскрытие Джейн Доу / The Autopsy of Jane Doe (2016) WEB-DLRip от Scarabey | P скачать торрент бесплатно
        Мы В КОНТАКТЕ =)
        (просмотров: 111)