.
Авторизация | Регистрация
» » Заколдованная Элла / Ella Enchanted (2004) HDRip-AVC | iPhone | D торрент скачать бесплатно




    Заколдованная Элла / Ella Enchanted (2004) HDRip-AVC | iPhone | D торрент скачать бесплатно

    Опубликовал: Админ | Дата: 27-02-2015, 11:10 | Просмотров: 277



    Заколдованная Элла / Ella Enchanted (2004) HDRip-AVC | iPhone | D

    Русское название: Заколдованная Элла
    Русское название в мировом прокате: Ella Enchanted
    Создали в: 2004
    Категория жанра: фэнтези, мелодрама, комедия, семейный
    Главный режиссер: Томми О’Хейвер
    Актеры: Энн Хэтэуэй, Хью Дэнси, Кэри Элвис, Эйдан МакАрдл, Джоанна Ламли, Люси Панч, Дженнифер Хайэм, Минни Драйвер, Эрик Айдл, Стив Куган

    Сюжет фильма:
    В детстве Элла получила от феи необычный подарок - повиновение. Теперь она не может отказаться ни от какой просьбы или указания, от кого бы они не исходили. Повзрослев, Элла отправляется на поиски коварной Люсинды, чтобы освободиться от чар. Кто только не встретиться ей в пути: и эльфы, и орки и великаны. А как их обхитришь, имея такую черту?..



    Снималось в: США, Ирландия, Великобритания
    Киностудия: Jane Startz Productions, Blessington Film Productions
    Время просмотра: 01:36:13
    Перевод текста: Русский дублированный


    Файл
    Кодек для видео: H.264
    Качество фильма: HDRip-AVC 480p | iPhone
    Информация о видео: 640x480@852x480 (16:9) at 23.976 fps, AVC at 1800 kbps
    Информация о звуке:
    1: ААС 2.0 192 kbps - Русский дублированный
    2: ААС 2.0 192 kbps - Английский
    Субтитры: Русские, Английские

    MI

    General
    Complete name : C:CREATE480outElla Enchanted.2004 (SD).m4v
    Format : MPEG-4
    Codec ID : M4V
    File size : 1.47 GiB
    Duration : 1h 36mn
    Overall bit rate mode : Variable
    Overall bit rate : 2 192 Kbps
    Movie name : Заколдованная Элла
    Performer : Томми О’Хейвер
    Genre : Sci-Fi Fantasy
    Recorded date : UTC 2004-04-09 07:00:00
    Encoded date : UTC 2014-02-27 07:18:49
    Tagged date : UTC 2014-02-27 07:33:45
    Copyright : Miramax Films
    Cover : Yes
    Comment : This Spring...... All spell breaks loose
    sonm : Ella Enchanted
    desc : В детстве Элла получила от феи необычный подарок — повиновение. Теперь она не может отказаться ни от какой просьбы или указания, от кого бы они не исходили. Повзрослев, Элла отправляется на поиски коварной Люсинды, чтобы освободиться от чар.
    ldes : В детстве Элла получила от феи необычный подарок — повиновение. Теперь она не может отказаться ни от какой просьбы или указания, от кого бы они не исходили. Повзрослев, Элла отправляется на поиски коварной Люсинды, чтобы освободиться от чар. Кто только не встретиться ей в пути: и эльфы, и орки и великаны. А как их обхитришь, имея такую черту?..
    stik : 9
    rtng : 0
    cnID : 432475333
    xid : Apple:vendor_id:2004-1713
    iTunEXTC : mpaa|PG|200|

    Video #1
    ID : 1
    Format : AVC
    Format/Info : Advanced Video Codec
    Format profile : Baseline@L3.0
    Format settings, CABAC : No
    Format settings, ReFrames : 2 frames
    Codec ID : avc1
    Codec ID/Info : Advanced Video Coding
    Duration : 1h 36mn
    Bit rate : 1 800 Kbps
    Maximum bit rate : 6 149 Kbps
    Width : 640 pixels
    Height : 480 pixels
    Display aspect ratio : 16:9
    Frame rate mode : Constant
    Frame rate : 23.976 fps
    Color space : YUV
    Chroma subsampling : 4:2:0
    Bit depth : 8 bits
    Scan type : Progressive
    Bits/(Pixel*Frame) : 0.244
    Stream size : 1.21 GiB (82%)
    Title : Ella Enchanted _2004_
    Writing library : x264 core 140 r2377 40 929f149 tMod 8-bit@4:2:0 X86_64
    Encoding settings : cabac=0 / ref=2 / deblock=1:-2:-2 / analyse=0x1:0x131 / me=umh / subme=7 / psy=1 / fade_compensate=1.00 / psy_rd=1.05:0.15 / mixed_ref=1 / me_range=32 / chroma_me=1 / trellis=2 / 8x8dct=0 / cqm=0 / deadzone=21,11 / fast_pskip=0 / chroma_qp_offset=-3 / threads=12 / lookahead_threads=2 / sliced_threads=0 / nr=0 / decimate=0 / interlaced=0 / bluray_compat=0 / constrained_intra=0 / fgo=0 / bframes=0 / weightp=0 / keyint=250 / keyint_min=23 / scenecut=40 / intra_refresh=0 / rc_lookahead=120 / rc=2pass / mbtree=1 / bitrate=1800 / ratetol=1.0 / qcomp=0.60 / qpmin=0:0:0 / qpmax=69:69:69 / qpstep=4 / cplxblur=20.0 / qblur=0.5 / vbv_maxrate=5000 / vbv_bufsize=5000 / nal_hrd=none / filler=0 / ip_ratio=1.30 / aq=1:0.90 / aq-sensitivity=10.00 / aq-factor=1.00:1.00:1.00 / aq2=0 / aq3=1:0.50:0.50:0.50:0.50:0.50:0.50:0.50:0.50 / aq3-sensitivity=10.00 / aq3-factor=1.00:1.00:1.00:1.00:1.00:1.00 / aq3-boundary=205:56:9
    Language : English
    Encoded date : UTC 2014-02-27 07:18:49
    Tagged date : UTC 2014-02-27 07:19:16
    Matrix coefficients : BT.709

    Video #2
    ID : 7
    Format : JPEG
    Codec ID : jpeg
    Duration : 1h 36mn
    Bit rate mode : Variable
    Bit rate : 2 053 bps
    Width : 640 pixels
    Height : 360 pixels
    Display aspect ratio : 16:9
    Frame rate mode : Variable
    Frame rate : 0.004 fps
    Minimum frame rate : 0.002 fps
    Maximum frame rate : 0.009 fps
    Color space : YUV
    Chroma subsampling : 4:2:0
    Bit depth : 8 bits
    Compression mode : Lossy
    Bits/(Pixel*Frame) : 2.228
    Stream size : 1.41 MiB (0%)
    Language : English
    Encoded date : UTC 2014-02-27 07:33:05
    Tagged date : UTC 2014-02-27 07:33:05

    Audio #1
    ID : 2
    Format : AAC
    Format/Info : Advanced Audio Codec
    Format profile : LC
    Codec ID : 40
    Duration : 1h 36mn
    Bit rate mode : Variable
    Bit rate : 192 Kbps
    Maximum bit rate : 235 Kbps
    Channel(s) : 2 channels
    Channel positions : Front: L R
    Sampling rate : 48.0 KHz
    Compression mode : Lossy
    Stream size : 131 MiB (9%)
    Title : Dub _R5_
    Language : Russian
    Encoded date : UTC 2014-02-27 07:12:11
    Tagged date : UTC 2014-02-27 07:19:16

    Audio #2
    ID : 3
    Format : AAC
    Format/Info : Advanced Audio Codec
    Format profile : LC
    Codec ID : 40
    Duration : 1h 36mn
    Bit rate mode : Variable
    Bit rate : 192 Kbps
    Maximum bit rate : 233 Kbps
    Channel(s) : 2 channels
    Channel positions : Front: L R
    Sampling rate : 48.0 KHz
    Compression mode : Lossy
    Stream size : 134 MiB (9%)
    Title : Original
    Language : English
    Encoded date : UTC 2014-02-27 07:16:21
    Tagged date : UTC 2014-02-27 07:19:16

    Text #1
    ID : 4
    Format : Timed Text
    Muxing mode : sbtl
    Codec ID : tx3g
    Duration : 1h 31mn
    Bit rate mode : Variable
    Bit rate : 96 bps
    Stream size : 64.1 KiB (0%)
    Title : Subtitle Russian _R5_
    Language : Russian
    Encoded date : UTC 2014-02-27 07:19:16
    Tagged date : UTC 2014-02-27 07:19:16

    Text #2
    ID : 5
    Format : Timed Text
    Muxing mode : sbtl
    Codec ID : tx3g
    Duration : 1h 30mn
    Bit rate mode : Variable
    Bit rate : 67 bps
    Stream size : 44.5 KiB (0%)
    Title : Subtitle English
    Language : English
    Encoded date : UTC 2014-02-27 07:19:16
    Tagged date : UTC 2014-02-27 07:19:16

    Menu
    ID : 6
    Codec ID : text
    Duration : 1h 36mn
    Language : English
    Encoded date : UTC 2014-02-27 07:20:36
    Tagged date : UTC 2014-02-27 07:20:36
    Bit rate mode : VBR

    iTunes Meta Tags

    Sort Name: Ella Enchanted
    XID: Apple:vendor_id:2004-1713
    contentID: 432475333
    Copyright: Miramax Films
    Screenwriters: Лори Крэйг, Карен МакКулла, Кирстен Смит
    Producers: Джейн Старц, Су Армстронг, Джеймс Флинн
    Director: Tommy O;Haver
    Cast: Anne Hathaway (Ella), Hugh Dancy (Char), Cary Elwes (Edgar), Aidan McArdle (Slannen), Joanna Lumley (Dame Olga), Lucy Punch (Hattie), Jennifer Higham (Olive), Minnie Driver (Mandy), Eric Idle (Narrator), Steve Coogan (Heston (voice)), Jimi Mistry (Benny), Vivica A. Fox (Lucinda), Parminder Nagra (Areida)
    Studio: Jane Startz Productions, Blessington Film Productions
    Rating: 3
    Long Deion: В детстве Элла получила от феи необычный подарок — повиновение. Теперь она не может отказаться ни от какой просьбы или указания, от кого бы они не исходили. Повзрослев, Элла отправляется на поиски коварной Люсинды, чтобы освободиться от чар. Кто только не встретиться ей в пути: и эльфы, и орки и великаны. А как их обхитришь, имея такую черту?..
    Deion: В детстве Элла получила от феи необычный подарок — повиновение. Теперь она не может отказаться ни от какой просьбы или указания, от кого бы они не исходили. Повзрослев, Элла отправляется на поиски коварной Люсинды, чтобы освободиться от чар.
    Release Date: 2004-04-09T07:00:00Z
    Genre: Sci-Fi Fantasy
    Comments: This Spring...... All spell breaks loose
    Artist: Томми О’Хейвер
    Name: Заколдованная Элла

    x264

    x264 info: frame I:1848 Avg QP:20.40 size: 35581
    x264 info: frame P:136583 Avg QP:23.04 size: 9026
    x264 info: mb I I16..4: 27.6% 0.0% 72.4%
    x264 info: mb P I16..4: 1.1% 0.0% 1.5% P16..4: 52.8% 16.1% 9.0% 1.6% 0.7% skip:17.2%
    x264 info: coded y,uvDC,uvAC intra: 58.7% 73.1% 37.7% inter: 36.6% 34.9% 10.2%
    x264 info: i16 v,h,dc,p: 46% 14% 10% 31%
    x264 info: i4 v,h,dc,ddl,ddr,vr,hd,vl,hu: 28% 11% 16% 7% 8% 11% 6% 9% 5%
    x264 info: i8c dc,h,v,p: 54% 12% 26% 8%
    x264 info: ref P L0: 77.4% 22.6%
    x264 info: kb/s:1799.21




    Залил: gekka
    Размер скачиваемого торрента: 1.47 GB (1582331357 Bytes)

    Заколдованная Элла / Ella Enchanted (2004) HDRip-AVC | iPhone | D торрент скачать бесплатно
    загрузка...
    Рейтинг →
     (голосов: 1, оценка 3/5, голосовать можно 1 раз )

    Другие торренты по теме:



      Комментарии (0):

      Информация

      Информация

        Посетители, находящиеся в группе Гости, не могут оставлять комментарии в данной новости.

        ↓ Меню



        ↓ Опрос

        А Вы добавили сайт в закладки?
        Да
        Не


        Top 10 за неделю (Фильмы)