.
Авторизация | Регистрация
Хочешь лучшие торренты? Добавь свой email!
Добавить
» » Дикость / Дикие штучки / Wild Things (1998) BDRip от ivandubskoj | D, P | Расширенная версия торрент скачать бесплатно




    Дикость / Дикие штучки / Wild Things (1998) BDRip от ivandubskoj | D, P | Расширенная версия торрент скачать бесплатно

    Опубликовал: Админ | Дата: 27-02-2015, 11:10 | Просмотров: 318



    Детально о кино
    Русское название: Дикость / Дикие штучки
    Русское название в мировом прокате: Wild Things
    Создали в: 1998
    Категория жанра: Триллер, криминал, детектив, драма, эротика
    Главный режиссёр: Джон МакНотон
    Актеры: Кевин Бейкон, Мэтт Диллон, Нив Кэмпбелл, Тереза Расселл, Дениз Ричардс, Дафна Рубин-Вега, Роберт Вагнер, Билл Мюррей, Кэрри Снодгресс, Джефф Перри

    Сюжет: Семнадцатилетняя Келли влюбляется в своего учителя Сэма. Она использует всевозможные способы, чтобы привлечь его внимание, но безрезультатно. А когда девушка не получает желаемого, она начинает мстить. Несостоявшаяся любовница обвиняет Сэма в изнасиловании.

    Улик явно недостаточно, пока на помощь Келли не приходит её подруга, которая готова давать ложные показания. Но вскоре девушка понимает, что является лишь пешкой в нечестной игре...



    Снималось в: США
    Киностудия: Columbia Pictires, Mandalay Entertainment Pictures
    Время просмотра: 01:54:47
    Перевод текста: Дублированный (R5) вставки на не переведённые фрагменты из Расширенной версии, профессиональный многоголосый (Видеосервис), профессиональный многоголосый (ОРТ), профессиональный многоголосый (СТС)

    Файл
    Кодек для видео: XviD
    Качество фильма: BDRip (Исходник: Blu-Ray Remux (1080p))
    Информация о видео: XviD, 720x304 (2.35:1), 1818 Кбит/с, 23.976 кадр/с
    Информация о звуке #1: Русский, Dolby AC3, 48000 Гц, 448 Кбит/с, 6 каналов (5.1) - DUB, Невафильм
    Информация о звуке #2: Русский, Dolby AC3, 48000 Гц, 448 Кбит/с, 6 каналов (5.1) - MVO, Видеосервис
    Информация о звуке #3: Русский, Dolby AC3, 48000 Гц, 192 Кбит/с, 2 канала (Стерео) - MVO, ОРТ
    Информация о звуке #4: Русский, Dolby AC3, 48000 Гц, 192 Кбит/с, 2 канала (Стерео) - MVO, СТС
    Информация о звуке #5: Английский, Dolby AC3, 48000 Гц, 448 Кбит/с, 6 каналов (5.1) - ENG, Оригинал
    Субтитры: Отсутствуют



    Особенности Unrated Edition

    В 2004 году в США на DVD, а позднее, и на Blu-Ray была выпущена специальная нецензурируемая расширенная версия фильма Без купюр - Unrated Edition.

    Эта версия никогда ранее не издавалась, была запрещена к показу и продаже, в некоторых штатах Америки и странах. А в России эта версия не выходила вообще.

    Unrated Edition включает в себя следующие сцены:

    В начале - школьные сцены перемежаются с видом обнажённых девушек, занимающихся любовью.
    Расширенная сцена - разговор Дакетта и Перес о Сьюзи и Ломбардо.
    Расширенная сцена - групповой секс между Ломбардо, Келли и Сьюзан.
    Расширенная сцена - любовная сцена между Келли и Сьюзи в бассейне.
    Келли поливает Дакетта из шланга, когда замечает, что тот следит за ней.
    Боуэден и Бакстер ужинают в мексиканском ресторане.

    Кроме того, версия содержит альтернативные диалоги во многих сценах.

    Альтернативный финал: Бабушка Сьюзи, показывая детективу Перес свой дом и, семейный альбом, признаётся, что она не настоящая бабушка девушки.
    В финале отец Келли узнаёт, что от него беременна девушка, которую он оставляет на погибель посреди болот, а Руби находит Сьюзи.
    Руби говорит детективу Перес, что Сандра Ван Райан - сестра Сьюзи, и Сьюзи занималась сексом со своей племянницей Келли — все эти сцены идут хронологически перед сценой разговора Перес и Уолтера.

    А также ещё 2 сцены добавлены в монтаж из флэшбеков во время финальных титров:

    1. Келли приходит к Ломбардо в бар и предлагает ему кокаин, а в конце они занимаются сексом, и в это время их фотографирует Сьюзи.
    2. Ломбардо занимается сексом с Келли после сцены мойки машины.
    Интересные факты

    Во время съёмок сцен у реки съёмочная группа заметила что-то в воде = оказалось, что это труп, который вытащила из воды прибывшая на место полиция.
    Даже в эротических сценах Нив Кэмпбелл не обнажалась - в её контракте прописан соответствующий пункт.
    Во время показа по телевидению из фильма были исключены все лесбийские сцены между Келли и Сьюзи.
    Режиссёр Джон МакНотон сказал, что удалил сцену, в которой персонажи Мэтта Диллона и Кевина Бейкона вместе принимают душ, так как посчитал её слишком гомосексуальной.
    Роберт Дауни-Младший получил роль Сэма, но вынужден был покинуть проект.
    В интервью журналу Maxim - Кевин Бейкон сообщил, что хотя по контракту он не должен огояться перед камерой, технически он может засудить самого себя за нарушение условий как продюсера картины.
    Фильм попал на 3 строчку в списке лучших лесбийских сцен в кино по мнению ресурса MadeMan.Com.
    Персонаж Билла Мюррея занимает всего 20 минут экранного времени.
    В интервью для Entertainment Weekly - Нив Кэмпбелл рассказала, что Мэтт Диллон и Дэнис Ричард выпили текилы перед съёмками сцены группового секса, чтобы снять напряжение.
    Это первый проект, на котором Кевин Бейкон также выполнял обязанности продюсера.
    Картина получила смешанные отзывы.
    Похожий сюжет с троицей, которая провела всех в суде, использовался в телесериале Двойник, где в главной роли снялась Сара Мишель Геллар.
    Награды фильма

    Премия канала MTV, 1999 год
    Номинации (1):
    Лучший поцелуй (Нив Кэмпбелл, Мэтт Диллон, Дениз Ричардс)

    Сатурн, 1999 год
    Номинации (1):
    Лучшая музыка
    MediaInfo

    Общее
    Полное имя : Dikost;.1998.Penta.BDRip.avi
    Формат : AVI
    Формат/Информация : Audio Video Interleave
    Профиль формата : OpenDML
    Размер файла : 2,85 Гбайт
    Продолжительность : 1 ч. 54 м.
    Общий поток : 3570 Кбит/сек
    Название фильма : Дикость (Дикие штучки) / Wild Things (1998) BDRip
    Жанр : Триллер, криминал, детектив, драма, эротика
    Дата записи : 27.02.2014
    Программа кодирования : VirtualDubMod 1.5.10.3 (build 2550/release)
    Библиотека кодирования : VirtualDubMod build 2550/release

    Видео
    Идентификатор : 0
    Формат : MPEG-4 Visual
    Профиль формата : Advanced Simple@L5
    Параметр BVOP формата : 2
    Параметр QPel формата : Нет
    Параметр GMC формата : Без точки перехода
    Параметр матрицы формата : Выборочная
    Идентификатор кодека : XVID
    Идентификатор кодека/Подсказка : XviD
    Продолжительность : 1 ч. 54 м.
    Битрейт : 1818 Кбит/сек
    Ширина : 720 пикселей
    Высота : 304 пикселя
    Соотношение сторон : 2,35:1
    Частота кадров : 23,976 кадра/сек
    Цветовое пространство : YUV
    Субдискретизация насыщенности : 4:2:0
    Битовая глубина : 8 бит
    Тип развёртки : Прогрессивная
    Метод сжатия : С потерями
    Бит/(Пиксели*Кадры) : 0.345
    Размер потока : 1,45 Гбайт (51%)
    Библиотека кодирования : XviD 57

    Аудио #1
    Идентификатор : 1
    Формат : AC-3
    Формат/Информация : Audio Coding 3
    Расширение режима : CM (complete main)
    Параметр Endianness формата : Big
    Идентификатор кодека : 2000
    Продолжительность : 1 ч. 54 м.
    Вид битрейта : Постоянный
    Битрейт : 448 Кбит/сек
    Каналы : 6 каналов
    Расположение каналов : Front: L C R, Side: L R, LFE
    Частота : 48,0 КГц
    Битовая глубина : 16 бит
    Метод сжатия : С потерями
    Размер потока : 368 Мбайт (13%)
    Выравнивание : Разделение по промежуткам
    Продолжительность промежутка : 64 мс. (1,53 видеокадра)
    Время предзагрузки промежутка : 500 мс.
    Заголовок : Russian (DUB, Невафильм)

    Аудио #2
    Идентификатор : 2
    Формат : AC-3
    Формат/Информация : Audio Coding 3
    Расширение режима : CM (complete main)
    Параметр Endianness формата : Big
    Идентификатор кодека : 2000
    Продолжительность : 1 ч. 54 м.
    Вид битрейта : Постоянный
    Битрейт : 448 Кбит/сек
    Каналы : 6 каналов
    Расположение каналов : Front: L C R, Side: L R, LFE
    Частота : 48,0 КГц
    Битовая глубина : 16 бит
    Метод сжатия : С потерями
    Размер потока : 368 Мбайт (13%)
    Выравнивание : Разделение по промежуткам
    Продолжительность промежутка : 64 мс. (1,53 видеокадра)
    Время предзагрузки промежутка : 500 мс.
    Заголовок : Russian (MVO, Видеосервис)

    Аудио #3
    Идентификатор : 3
    Формат : AC-3
    Формат/Информация : Audio Coding 3
    Расширение режима : CM (complete main)
    Параметр Endianness формата : Big
    Идентификатор кодека : 2000
    Продолжительность : 1 ч. 54 м.
    Вид битрейта : Постоянный
    Битрейт : 192 Кбит/сек
    Каналы : 2 канала
    Расположение каналов : Front: L R
    Частота : 48,0 КГц
    Битовая глубина : 16 бит
    Метод сжатия : С потерями
    Размер потока : 158 Мбайт (5%)
    Выравнивание : Разделение по промежуткам
    Продолжительность промежутка : 64 мс. (1,53 видеокадра)
    Время предзагрузки промежутка : 500 мс.
    Заголовок : Russian (MVO, ОРТ)

    Аудио #4
    Идентификатор : 4
    Формат : AC-3
    Формат/Информация : Audio Coding 3
    Расширение режима : CM (complete main)
    Параметр Endianness формата : Big
    Идентификатор кодека : 2000
    Продолжительность : 1 ч. 54 м.
    Вид битрейта : Постоянный
    Битрейт : 192 Кбит/сек
    Каналы : 2 канала
    Расположение каналов : Front: L R
    Частота : 48,0 КГц
    Битовая глубина : 16 бит
    Метод сжатия : С потерями
    Размер потока : 158 Мбайт (5%)
    Выравнивание : Разделение по промежуткам
    Продолжительность промежутка : 64 мс. (1,53 видеокадра)
    Время предзагрузки промежутка : 500 мс.
    Заголовок : Russian (MVO, СТС)

    Аудио #5
    Идентификатор : 5
    Формат : AC-3
    Формат/Информация : Audio Coding 3
    Расширение режима : CM (complete main)
    Параметр Endianness формата : Big
    Идентификатор кодека : 2000
    Продолжительность : 1 ч. 54 м.
    Вид битрейта : Постоянный
    Битрейт : 448 Кбит/сек
    Каналы : 6 каналов
    Расположение каналов : Front: L C R, Side: L R, LFE
    Частота : 48,0 КГц
    Битовая глубина : 16 бит
    Метод сжатия : С потерями
    Размер потока : 368 Мбайт (13%)
    Выравнивание : Разделение по промежуткам
    Продолжительность промежутка : 64 мс. (1,53 видеокадра)
    Время предзагрузки промежутка : 500 мс.
    Заголовок : English (Original)
    Скриншоты для ознакомления


    Релиз подготовил: ivandubskoj
    Залил: ivandubskoj
    Размер скачиваемого торрента: 2.85 GB (3064414208 Bytes)

    Дикость / Дикие штучки / Wild Things (1998) BDRip от ivandubskoj | D, P | Расширенная версия торрент скачать бесплатно
    загрузка...
    Рейтинг →
     (голосов: 1, оценка 4/5, голосовать можно 1 раз )

    Другие торренты по теме:

  • Дикость / Wild Things (1998) BDRip-AVC | Расширенная версия
  • Дикость 2 / Дикие штучки 2 / Wild Things 2 (2004) DVDRip от ivandubskoj | P, P
  • Дикость 2 / Дикие штучки 2 / Wild Things 2 (2004) DVD9 | P
  • Дикость / Wild Things (1998) HDRip от Scarabey | D
  • Дикость / Wild Things (1998) HDRip от Scarabey | Расширенная версия
  • Дикость 4: Оргия / Wild Things: Foursome (2010) BDRip 720p | P
  • Любовь и дикость / Love and Savagery (2009) HDTVRip | P
  • Дикость 2 / Wild Things 2 (2004) HDRip от Scarabey | P2


    • Комментарии (0):

      Информация

      Информация

        Посетители, находящиеся в группе Гости, не могут оставлять комментарии в данной новости.

        ↓ Меню



        ↓ Опрос

        А Вы добавили сайт в закладки?
        Да
        Не


        Top 10 за месяц (Фильмы)