.
Авторизация | Регистрация
Хочешь лучшие торренты? Добавь свой email!
Добавить
» » Джеймси / Jamesy Boy (2014) BDRemux 1080p от NovaLan торрент скачать бесплатно




    Джеймси / Jamesy Boy (2014) BDRemux 1080p от NovaLan торрент скачать бесплатно

    Опубликовал: Админ | Дата: 27-02-2015, 11:10 | Просмотров: 289



    Русское название: Джеймси
    Русское название в мировом прокате: Jamesy Boy
    Создали в: 2014
    Категория жанра: Драма, мелодрама, криминал, семейный, музыка
    Главный режиссер: Тревор Уайт
    Актеры: Спенсер Лофранко, Мэри-Луиз Паркер, Винг Реймз, Джеймс Вудс, Таисса Фармига, Роза Салазар, Бен Розенфилд, Табу, Аарон Опара, Роберт Ф. Чю
    Сюжет фильма:
    Реальная история Джеймса Бёрнса, который еще подростком связался с уличными бандами Денвера и в результате попал в тюрьму строгого режима. Но, несмотря на всё это, Джеймс всё же верит в светлое будущее.


    Снималось в: США, Gama Entertainment Partners, Star Thrower Entertainment, Synergics Films
    Время просмотра: 01:49:34
    Перевод текста: Любительский одноголосый (datynet)

    Внимание! Присутствует ненормативная лексика!

    Кодек для видео: H.264
    Качество фильма: Blu-Ray Remux 1080p
    Информация о видео: MPEG-4 AVC, 19.6 Кбит/с, 1920x1080, 23.976 кадр/с
    Информация о звуке: Русский (AC3, 2 ch, 192 Кбит/с), английский (AC3, 6 ch, 448 Кбит/с), (AC3, 2 ch, 192 Кбит/с), французский (AC3, 6 ch, 448 Кбит/с)
    Субтитры: Английские

    Инфо-файл

    Полное имя : E:Раздачи_EJamesy.Boy.2014.BDRemux.1080p.NovaLan.mkv
    Формат : Matroska
    Версия формата : Version 4 / Version 2
    Размер файла : 16,3 Гбайт
    Продолжительность : 1 ч. 49 м.
    Режим общего битрейта : Переменный
    Общий поток : 21,3 Мбит/сек
    Название фильма : Jamesy Boy 2014 - NovaLan
    Дата кодирования : UTC 2014-02-27 00:42:10
    Программа кодирования : mkvmerge v6.7.0 (;Back to the Ground;) 64bit built on Jan 8 2014 15:10:52
    Библиотека кодирования : libebml v1.3.0 libmatroska v1.4.1

    Видео
    Идентификатор : 1
    Формат : AVC
    Формат/Информация : Advanced Video Codec
    Профиль формата : High@L4.1
    Параметр CABAC формата : Да
    Параметр ReFrames формата : 3 кадра
    Идентификатор кодека : V_MPEG4/ISO/AVC
    Продолжительность : 1 ч. 49 м.
    Вид битрейта : Переменный
    Битрейт : 19,6 Мбит/сек
    Максимальный битрейт : 35,0 Мбит/сек
    Ширина : 1920 пикселей
    Высота : 1080 пикселей
    Соотношение сторон : 16:9
    Частота кадров : 23,976 кадра/сек
    Стандарт вещания : NTSC
    Цветовое пространство : YUV
    Субдискретизация насыщенности : 4:2:0
    Битовая глубина : 8 бит
    Тип развёртки : Прогрессивная
    Бит/(Пиксели*Кадры) : 0.394
    Размер потока : 15,0 Гбайт (92%)
    Заголовок : Jamesy Boy 2014 - NovaLan
    Default : Да
    Forced : Нет
    Основные цвета : BT.709-5, BT.1361, IEC 61966-2-4, SMPTE RP177
    Характеристики трансфера : BT.709-5, BT.1361
    Коэффициенты матрицы : BT.709-5, BT.1361, IEC 61966-2-4 709, SMPTE RP177

    Аудио #1
    Идентификатор : 2
    Формат : AC-3
    Формат/Информация : Audio Coding 3
    Расширение режима : CM (complete main)
    Параметр Endianness формата : Big
    Идентификатор кодека : A_AC3
    Продолжительность : 1 ч. 49 м.
    Вид битрейта : Постоянный
    Битрейт : 192 Кбит/сек
    Каналы : 2 канала
    Расположение каналов : Front: L R
    Частота : 48,0 КГц
    Битовая глубина : 16 бит
    Метод сжатия : С потерями
    Размер потока : 150 Мбайт (1%)
    Язык : Russian
    Default : Да
    Forced : Нет

    Аудио #2
    Идентификатор : 3
    Формат : AC-3
    Формат/Информация : Audio Coding 3
    Расширение режима : CM (complete main)
    Параметр Endianness формата : Big
    Идентификатор кодека : A_AC3
    Продолжительность : 1 ч. 49 м.
    Вид битрейта : Постоянный
    Битрейт : 448 Кбит/сек
    Каналы : 6 каналов
    Расположение каналов : Front: L C R, Side: L R, LFE
    Частота : 48,0 КГц
    Битовая глубина : 16 бит
    Метод сжатия : С потерями
    Размер потока : 351 Мбайт (2%)
    Язык : English
    Default : Нет
    Forced : Нет

    Аудио #3
    Идентификатор : 4
    Формат : AC-3
    Формат/Информация : Audio Coding 3
    Расширение режима : CM (complete main)
    Параметр Endianness формата : Big
    Идентификатор кодека : A_AC3
    Продолжительность : 1 ч. 49 м.
    Вид битрейта : Постоянный
    Битрейт : 448 Кбит/сек
    Каналы : 6 каналов
    Расположение каналов : Front: L C R, Side: L R, LFE
    Частота : 48,0 КГц
    Битовая глубина : 16 бит
    Метод сжатия : С потерями
    Размер потока : 351 Мбайт (2%)
    Язык : French
    Default : Нет
    Forced : Нет

    Аудио #4
    Идентификатор : 5
    Формат : AC-3
    Формат/Информация : Audio Coding 3
    Расширение режима : CM (complete main)
    Параметр Endianness формата : Big
    Идентификатор кодека : A_AC3
    Продолжительность : 1 ч. 49 м.
    Вид битрейта : Постоянный
    Битрейт : 192 Кбит/сек
    Каналы : 2 канала
    Расположение каналов : Front: L R
    Частота : 48,0 КГц
    Битовая глубина : 16 бит
    Метод сжатия : С потерями
    Размер потока : 150 Мбайт (1%)
    Язык : English
    Default : Нет
    Forced : Нет

    Текст
    Идентификатор : 6
    Формат : UTF-8
    Идентификатор кодека : S_TEXT/UTF8
    Идентификатор кодека/Информация : UTF-8 Plain Text
    Язык : English
    Default : Нет
    Forced : Нет

    Меню
    00:00:00.000 : en:Chapter 1
    00:06:14.123 : en:Chapter 2
    00:12:15.067 : en:Chapter 3
    00:17:34.136 : en:Chapter 4
    00:24:48.528 : en:Chapter 5
    00:31:50.867 : en:Chapter 6
    00:38:51.662 : en:Chapter 7
    00:45:47.745 : en:Chapter 8
    00:52:40.824 : en:Chapter 9
    00:59:44.330 : en:Chapter 10
    01:08:42.159 : en:Chapter 11
    01:15:39.117 : en:Chapter 12
    01:20:36.164 : en:Chapter 13
    01:28:23.965 : en:Chapter 14
    01:35:22.633 : en:Chapter 15
    01:44:07.241 : en:Chapter 16
    01:49:18.969 : en:Chapter 17

    Релиз группа NovaLan
    Автор сборки Sergei7721






    Релиз подготовил:


    Залил: Sergei7721
    Размер скачиваемого торрента: 16.29 GB (17487253470 Bytes)

    Джеймси / Jamesy Boy (2014) BDRemux 1080p от NovaLan торрент скачать бесплатно
    загрузка...
    Рейтинг →
     (голосов: 1, оценка 5/5, голосовать можно 1 раз )

    Другие торренты по теме:

  • Джеймси / Jamesy Boy (2014) WEB-DL 720p | L1
  • Джеймси / Jamesy Boy (2014) WEB-DLRip | L1
  • Джеймси / Jamesy Boy (2014) HDRip от MediaClub | L1
  • Джеймси / Jamesy Boy (2014) BDRip-AVC от Leonardo and Scarabey | L1 скачать через торрент бесплатно
  • Джеймси / Jamesy Boy (2014) BDRip
  • Джеймси / Jamesy Boy (2014) BDRip 720p от CINEMANIA | L1


    • Комментарии (0):

      Информация

      Информация

        Посетители, находящиеся в группе Гости, не могут оставлять комментарии в данной новости.

        ↓ Меню



        ↓ Опрос

        А Вы добавили сайт в закладки?
        Да
        Не


        Top 10 за месяц (Фильмы)