.
Авторизация | Регистрация
Хочешь лучшие торренты? Добавь свой email!
Добавить
» » Дорога, дорога домой / The Way Way Back (2013) BDRemux 1080p от NovaLan скачать через торрент бесплатно




    Дорога, дорога домой / The Way Way Back (2013) BDRemux 1080p от NovaLan скачать через торрент бесплатно

    Опубликовал: Админ | Дата: 27-02-2015, 11:10 | Просмотров: 397



    Русское название: Дорога, дорога домой
    Русское название в мировом прокате: The Way Way Back
    Создали в: 2013
    Категория жанра: Драма, комедия
    Главный режиссер: Нат Факсон, Джим Рэш
    Актеры: Стив Карелл, Тони Коллетт, Эллисон Джэнни, Анна-София Робб, Сэм Рокуэлл, Майя Рудольф, Лиам Джеймс, Роб Кордри, Аманда Пит, Ривер Агирр
    Сюжет фильма:
    История подростка, который нашел в себе силы противостоять жестокому отчиму и снова обрел контакт с матерью. И все это благодаря дружбе, завязавшейся у героя однажды летом.


    Снималось в: США, Odd Lot Entertainment, Sycamore Pictures, The Walsh Company, What Just Happened Productions
    Время просмотра: 01:43:28
    Перевод текста: Профессиональный двухголосый (OzzTV) / Любительский многоголосый (И. Грачева, А. Шухарт, М. Максимов) / Любительский одноголосый (Andi)

    Кодек для видео: H.264
    Качество фильма: Blu-Ray Remux 1080p
    Информация о видео: MPEG-4 AVC, 31.3 Кбит/с, 1920x1080, 23.976 кадр/с
    Информация о звуке: Русский (DTS, 6 ch, 1510 Кбит/с), (AC3, 6 ch, 384 Кбит/с), английский (DTS-HD MA, 6 ch, 3650 Кбит/с), (AC3, 6 ch, 448 Кбит/с)
    Субтитры: Русские, английские

    Инфо-файл

    Полное имя : E:Раздачи_EThe.Way.Way.Back.2013.BDRemux.1080p.NovaLan.mkv
    Формат : Matroska
    Версия формата : Version 4 / Version 2
    Размер файла : 26,2 Гбайт
    Продолжительность : 1 ч. 43 м.
    Режим общего битрейта : Переменный
    Общий поток : 36,3 Мбит/сек
    Название фильма : The Way Way Back 2013 - NovaLan
    Дата кодирования : UTC 2014-02-28 19:24:23
    Программа кодирования : mkvmerge v6.7.0 (;Back to the Ground;) 64bit built on Jan 8 2014 15:10:52
    Библиотека кодирования : libebml v1.3.0 libmatroska v1.4.1

    Видео
    Идентификатор : 1
    Формат : AVC
    Формат/Информация : Advanced Video Codec
    Профиль формата : High@L4.1
    Параметр CABAC формата : Да
    Параметр ReFrames формата : 4 кадра
    Идентификатор кодека : V_MPEG4/ISO/AVC
    Продолжительность : 1 ч. 43 м.
    Вид битрейта : Переменный
    Битрейт : 31,3 Мбит/сек
    Максимальный битрейт : 32,0 Мбит/сек
    Ширина : 1920 пикселей
    Высота : 1080 пикселей
    Соотношение сторон : 16:9
    Частота кадров : 23,976 кадра/сек
    Цветовое пространство : YUV
    Субдискретизация насыщенности : 4:2:0
    Битовая глубина : 8 бит
    Тип развёртки : Прогрессивная
    Бит/(Пиксели*Кадры) : 0.629
    Размер потока : 22,6 Гбайт (86%)
    Заголовок : The Way Way Back 2013 - NovaLan
    Default : Да
    Forced : Нет

    Аудио #1
    Идентификатор : 2
    Формат : DTS
    Формат/Информация : Digital Theater Systems
    Идентификатор кодека : A_DTS
    Продолжительность : 1 ч. 43 м.
    Вид битрейта : Постоянный
    Битрейт : 1510 Кбит/сек
    Каналы : 6 каналов
    Расположение каналов : Front: L C R, Side: L R, LFE
    Частота : 48,0 КГц
    Битовая глубина : 24 бит
    Метод сжатия : С потерями
    Размер потока : 1,09 Гбайт (4%)
    Язык : Russian
    Default : Да
    Forced : Нет

    Аудио #2
    Идентификатор : 3
    Формат : AC-3
    Формат/Информация : Audio Coding 3
    Расширение режима : CM (complete main)
    Параметр Endianness формата : Big
    Идентификатор кодека : A_AC3
    Продолжительность : 1 ч. 43 м.
    Вид битрейта : Постоянный
    Битрейт : 384 Кбит/сек
    Каналы : 6 каналов
    Расположение каналов : Front: L C R, Side: L R, LFE
    Частота : 48,0 КГц
    Битовая глубина : 16 бит
    Метод сжатия : С потерями
    Размер потока : 284 Мбайт (1%)
    Язык : Russian
    Default : Нет
    Forced : Нет

    Аудио #3
    Идентификатор : 4
    Формат : AC-3
    Формат/Информация : Audio Coding 3
    Расширение режима : CM (complete main)
    Параметр Endianness формата : Big
    Идентификатор кодека : A_AC3
    Продолжительность : 1 ч. 43 м.
    Вид битрейта : Постоянный
    Битрейт : 384 Кбит/сек
    Каналы : 6 каналов
    Расположение каналов : Front: L C R, Side: L R, LFE
    Частота : 48,0 КГц
    Битовая глубина : 16 бит
    Метод сжатия : С потерями
    Размер потока : 284 Мбайт (1%)
    Язык : Russian
    Default : Нет
    Forced : Нет

    Аудио #4
    Идентификатор : 5
    Формат : DTS
    Формат/Информация : Digital Theater Systems
    Профиль формата : MA / Core
    Идентификатор кодека : A_DTS
    Продолжительность : 1 ч. 43 м.
    Вид битрейта : Переменный
    Битрейт : 1561 Кбит/сек / 1510 Кбит/сек
    Каналы : 6 каналов
    Расположение каналов : Front: L C R, Side: L R, LFE
    Частота : 48,0 КГц
    Битовая глубина : 24 бит
    Метод сжатия : Без потерь / Lossy
    Язык : English
    Default : Нет
    Forced : Нет

    Аудио #5
    Идентификатор : 6
    Формат : AC-3
    Формат/Информация : Audio Coding 3
    Расширение режима : CM (complete main)
    Параметр Endianness формата : Big
    Идентификатор кодека : A_AC3
    Продолжительность : 1 ч. 43 м.
    Вид битрейта : Постоянный
    Битрейт : 448 Кбит/сек
    Каналы : 6 каналов
    Расположение каналов : Front: L C R, Side: L R, LFE
    Частота : 48,0 КГц
    Битовая глубина : 16 бит
    Метод сжатия : С потерями
    Размер потока : 332 Мбайт (1%)
    Язык : English
    Default : Нет
    Forced : Нет

    Текст #1
    Идентификатор : 7
    Формат : PGS
    Режим смешивания : zlib
    Идентификатор кодека : S_HDMV/PGS
    Идентификатор кодека/Информация : The same subtitle format used on BDs/HD-DVDs
    Язык : Russian
    Default : Да
    Forced : Нет

    Текст #2
    Идентификатор : 8
    Формат : PGS
    Режим смешивания : zlib
    Идентификатор кодека : S_HDMV/PGS
    Идентификатор кодека/Информация : The same subtitle format used on BDs/HD-DVDs
    Язык : Russian
    Default : Нет
    Forced : Нет

    Текст #3
    Идентификатор : 9
    Формат : PGS
    Режим смешивания : zlib
    Идентификатор кодека : S_HDMV/PGS
    Идентификатор кодека/Информация : The same subtitle format used on BDs/HD-DVDs
    Язык : English
    Default : Нет
    Forced : Нет

    Меню
    00:00:00.000 : en:Chapter 1
    00:03:38.217 : en:Chapter 2
    00:04:50.206 : en:Chapter 3
    00:09:56.470 : en:Chapter 4
    00:12:51.520 : en:Chapter 5
    00:15:47.363 : en:Chapter 6
    00:17:52.695 : en:Chapter 7
    00:20:10.959 : en:Chapter 8
    00:23:56.643 : en:Chapter 9
    00:27:51.836 : en:Chapter 10
    00:31:14.497 : en:Chapter 11
    00:34:02.081 : en:Chapter 12
    00:36:06.998 : en:Chapter 13
    00:38:39.400 : en:Chapter 14
    00:40:35.306 : en:Chapter 15
    00:43:44.330 : en:Chapter 16
    00:47:57.291 : en:Chapter 17
    00:49:34.846 : en:Chapter 18
    00:55:34.748 : en:Chapter 19
    00:59:23.142 : en:Chapter 20
    01:03:05.490 : en:Chapter 21
    01:07:39.680 : en:Chapter 22
    01:10:52.414 : en:Chapter 23
    01:13:41.707 : en:Chapter 24
    01:16:07.187 : en:Chapter 25
    01:21:03.066 : en:Chapter 26
    01:24:38.656 : en:Chapter 27
    01:27:52.642 : en:Chapter 28
    01:29:35.453 : en:Chapter 29
    01:31:55.426 : en:Chapter 30
    01:33:58.381 : en:Chapter 31
    01:35:03.322 : en:Chapter 32
    01:43:27.951 : en:Chapter 33

    Релиз группа NovaLan
    Автор сборки Sergei7721






    Релиз подготовил:


    Залил: Sergei7721
    Размер скачиваемого торрента: 26.23 GB (28164202150 Bytes)

    Дорога, дорога домой / The Way Way Back (2013) BDRemux 1080p от NovaLan скачать через торрент бесплатно
    загрузка...
    Рейтинг →
     (голосов: 1, оценка 5/5, голосовать можно 1 раз )

    Другие торренты по теме:

  • Дорога, дорога домой / The Way Way Back (2013) BDRip-AVC от MediaClub | Sub скачать через торрент бесплатно
  • Дорога, дорога домой / The Way Way Back (2013) HDRip | L1 скачать через торрент бесплатно
  • Дорога, дорога домой / The Way Way Back (2013) BDRip 1080p от CINEMANIA | L1
  • Дорога, дорога домой / The Way Way Back (2013) BDRip 720p от CINEMANIA | L1
  • Дорога, дорога домой / The Way Way Back (2013) HDRip от Scarabey
  • Дорога, дорога домой / The Way Way Back (2013) BDRip 720p от CINEMANIA | L, L1
  • Дорога, дорога домой / The Way Way Back (2013) BDRip 1080p от CINEMANIA | L, L1
  • Дорога, дорога домой / The Way Way Back (2013) HDRip | L


    • Комментарии (0):

      Информация

      Информация

        Посетители, находящиеся в группе Гости, не могут оставлять комментарии в данной новости.

        ↓ Меню



        ↓ Опрос

        А Вы добавили сайт в закладки?
        Да
        Не


        Top 10 за месяц (Фильмы)