.
Авторизация | Регистрация
» » Последний рубеж / Homefront (2013) BDRip 1080p от GORESEWAGE | Line, 2xL1 скачать через торрент бесплатно




    Последний рубеж / Homefront (2013) BDRip 1080p от GORESEWAGE | Line, 2xL1 скачать через торрент бесплатно

    Опубликовал: Админ | Дата: 27-02-2015, 11:10 | Просмотров: 168



    Последний рубеж / Homefront

    Создали в: 2013
    Снималось в: США
    Категория жанра: боевик, триллер, криминал
    Время просмотра: 01:40:34
    Озвучка 1: Профессиональный (дублированный) Line
    Озвучка 2: Одноголосый закадровый Дмитрий Есарев
    Озвучка 3: Одноголосый закадровый lord666
    Субтитры: Russian, English
    Киностудия: Homefront Productions, Millennium Films, Mojo Films, Nu Image Films

    Главный режиссёр: Гэри Фледер / Gary Fleder

    Актеры: Джейсон Стэйтем, Джеймс Франко, Изабела Видович, Вайнона Райдер, Кейт Босворт, Клэнси Браун, Рашель Лефевр, Омар Бенсон Миллер, Маркус Хестер, Фрэнк Грилло и др.

    Сюжет: Фил Брокер - бывший агент из отдела борьбы с наркотиками. Фил переезжает в небольшой город вместе с семьёй в надежде забыть прошлое. Но он узнает, что город только со стороны кажется тихим и спокойным местом, на самом деле он кишит насилием, наркотиками, а всем этим заправляет злодей по кличке Аллигатор…



    Sample

    Качество фильма: BDRip 1080p
    Контейнер: MKV
    Информация о видео кодек: MPEG-4 AVC Video
    Информация о звуке кодек: DTS / AC3
    Информация о видео: MPEG-4 AVC Video / 15900 kbps / 1920x800p / 23,976 fps / 2.40:1 / High Profile 4.1
    Информация о звуке 1: Russian / AC3 / 2.0 / 48 kHz / 192 kbps / 16-bit / Dub Line
    Информация о звуке 2: Russian / DTS / 5.1 / 48 kHz / 1536 kbps / 24-bit / VO Дмитрий Есарев
    Информация о звуке 3: Russian / AC3 / 2.0 / 48 kHz / 192 kbps / 16-bit / VO lord666
    Информация о звуке 4: English / DTS / 5.1 / 48 kHz / 1536 kbps / 24-bit / Original
    Навигация по главам: да

    *Русские сабы и дорога №2 содержат ненормативную лексику!

    Screens

    MediaInfo
    C:/GORESEWAGE/Homefront 2013 BDRip 1080p GORESEWAGE.mkv
    General
    Unique ID : 234459744642065452467490095748844916186 (0xB0634DE656F2263B91D5F7FFC6C08DDA)
    Complete name : C:/GORESEWAGE/Homefront 2013 BDRip 1080p GORESEWAGE.mkv
    Format : Matroska
    Format version : Version 4 / Version 2
    File size : 15.3 GiB
    Duration : 1h 40mn
    Overall bit rate mode : Variable
    Overall bit rate : 21.8 Mbps
    Movie name : Homefront 2013 BDRip 1080p GORESEWAGE
    Encoded date : UTC 2014-02-28 11:36:01
    Writing application : mkvmerge v6.1.0 (;Old Devil;) built on Mar 2 2013 14:32:37
    Writing library : libebml v1.3.0 libmatroska v1.4.0
    Attachment : Yes
    Video #1
    ID : 1
    Format : AVC
    Format/Info : Advanced Video Codec
    Format profile : High@L4.1
    Format settings, CABAC : Yes
    Format settings, ReFrames : 5 frames
    Codec ID : V_MPEG4/ISO/AVC
    Duration : 1h 40mn
    Nominal bit rate : 15.9 Mbps
    Width : 1 920 pixels
    Height : 800 pixels
    Display aspect ratio : 2.40:1
    Frame rate mode : Constant
    Frame rate : 23.976 fps
    Color space : YUV
    Chroma subsampling : 4:2:0
    Bit depth : 8 bits
    Scan type : Progressive
    Bits/(Pixel*Frame) : 0.432
    Title : Homefront 2013 BDRip 1080p GORESEWAGE
    Writing library : x264 core 140 r2377 40 929f149 tMod 8-bit@4:2:0 X86_64
    Encoding settings : cabac=1 / ref=5 / deblock=1:-3:-3 / analyse=0x3:0x113 / me=umh / subme=11 / psy=1 / fade_compensate=0.00 / psy_rd=1.05:0.00 / mixed_ref=1 / me_range=32 / chroma_me=1 / trellis=2 / 8x8dct=1 / cqm=0 / deadzone=21,11 / fast_pskip=0 / chroma_qp_offset=-2 / threads=18 / lookahead_threads=3 / sliced_threads=0 / nr=0 / decimate=0 / interlaced=0 / bluray_compat=0 / constrained_intra=0 / fgo=0 / bframes=8 / b_pyramid=2 / b_adapt=2 / b_bias=0 / direct=3 / weightb=1 / open_gop=0 / weightp=2 / keyint=240 / keyint_min=24 / scenecut=40 / intra_refresh=0 / rc=2pass / mbtree=0 / bitrate=15900 / ratetol=1.0 / qcomp=0.70 / qpmin=0:0:0 / qpmax=69:69:69 / qpstep=4 / cplxblur=20.0 / qblur=0.5 / ip_ratio=1.20 / pb_ratio=1.20 / aq=4:0.80 / aq-sensitivity=10.00 / aq-factor=1.00:1.00:1.00 / aq2=0 / aq3=0
    Language : English
    Default : Yes
    Forced : No
    Audio #2
    ID : 2
    Format : AC-3
    Format/Info : Audio Coding 3
    Mode extension : CM (complete main)
    Format settings, Endianness : Big
    Codec ID : A_AC3
    Duration : 1h 40mn
    Bit rate mode : Constant
    Bit rate : 192 Kbps
    Channel count : 2 channels
    Channel positions : Front: L R
    Sampling rate : 48.0 KHz
    Bit depth : 16 bits
    Compression mode : Lossy
    Stream size : 138 MiB (1%)
    Title : Dub Line
    Language : Russian
    Default : Yes
    Forced : No
    Audio #3
    ID : 3
    Format : DTS
    Format/Info : Digital Theater Systems
    Mode : 16
    Format settings, Endianness : Big
    Codec ID : A_DTS
    Duration : 1h 40mn
    Bit rate mode : Constant
    Bit rate : 1 509 Kbps
    Channel count : 6 channels
    Channel positions : Front: L C R, Side: L R, LFE
    Sampling rate : 48.0 KHz
    Bit depth : 24 bits
    Compression mode : Lossy
    Stream size : 1.06 GiB (7%)
    Title : VO Дмитрий Есарев
    Language : Russian
    Default : No
    Forced : No
    Audio #4
    ID : 4
    Format : AC-3
    Format/Info : Audio Coding 3
    Mode extension : CM (complete main)
    Format settings, Endianness : Big
    Codec ID : A_AC3
    Duration : 1h 40mn
    Bit rate mode : Constant
    Bit rate : 192 Kbps
    Channel count : 2 channels
    Channel positions : Front: L R
    Sampling rate : 48.0 KHz
    Bit depth : 16 bits
    Compression mode : Lossy
    Stream size : 138 MiB (1%)
    Title : VO lord666
    Language : Russian
    Default : No
    Forced : No
    Audio #5
    ID : 5
    Format : DTS
    Format/Info : Digital Theater Systems
    Format profile : MA / Core
    Mode : 16
    Format settings, Endianness : Big
    Codec ID : A_DTS
    Duration : 1h 40mn
    Bit rate mode : Variable
    Bit rate : Unknown / 1 509 Kbps
    Channel count : 6 channels
    Channel positions : Front: L C R, Side: L R, LFE
    Sampling rate : 48.0 KHz
    Bit depth : 24 bits
    Compression mode : Lossless / Lossy
    Title : Original
    Language : English
    Default : No
    Forced : No
    Text #6
    ID : 6
    Format : UTF-8
    Codec ID : S_TEXT/UTF8
    Codec ID/Info : UTF-8 Plain Text
    Title : Full
    Language : Russian
    Default : No
    Forced : No
    Text #7
    ID : 7
    Format : UTF-8
    Codec ID : S_TEXT/UTF8
    Codec ID/Info : UTF-8 Plain Text
    Title : SDH
    Language : English
    Default : No
    Forced : No
    Menu
    00:00:00.000 : en:Chapter 01
    00:04:55.461 : en:Chapter 02
    00:09:14.095 : en:Chapter 03
    00:14:55.853 : en:Chapter 04
    00:21:42.426 : en:Chapter 05
    00:25:03.001 : en:Chapter 06
    00:31:23.214 : en:Chapter 07
    00:34:04.000 : en:Chapter 08
    00:39:01.088 : en:Chapter 09
    00:45:47.995 : en:Chapter 10
    00:49:29.257 : en:Chapter 11
    00:55:16.479 : en:Chapter 12
    01:01:55.420 : en:Chapter 13
    01:08:56.173 : en:Chapter 14
    01:12:27.634 : en:Chapter 15
    01:16:00.973 : en:Chapter 16
    01:19:15.250 : en:Chapter 17
    01:24:02.620 : en:Chapter 18
    01:29:39.123 : en:Chapter 19
    01:35:16.961 : en:Chapter 20

    Размер скачиваемого торрента: 15.34 GB (16472223382 Bytes)

    Последний рубеж / Homefront (2013) BDRip 1080p от GORESEWAGE | Line, 2xL1 скачать через торрент бесплатно
    загрузка...
    Рейтинг →
     (голосов: 1, оценка 5/5, голосовать можно 1 раз )

    Другие торренты по теме:

  • Звездный путь 5: Последний рубеж / Star Trek V: The Final Frontier (1989) BDRip от HQCLUB торрент скачать бесплатно
  • Сергей Михеенков - Серпухов. Последний рубеж. 49-я армия в битве за Москву. 1941 (2011) PDF торрент скачать бесплатно
  • Тайны мира с Анной Чапман. Разоблачение. Последний рубеж (2013) SATRip торрент скачать бесплатно
  • Последний рубеж: Защитники Галактики / Ginga Kikoutai Majestic Prince HDTV 720p | L2 торрент скачать бесплатно
  • Последний рубеж: Защитники Галактики / Ginga Kikoutai Majestic Prince HDTV 720p | L2 торрент скачать бесплатно
  • Последний рубеж (2013) скачать через торрент бесплатно
  • Последний рубеж / Homefront (2013) CAMRip скачать через торрент бесплатно
  • Последний рубеж / Homefront (2013) TS скачать через торрент бесплатно


    • Комментарии (0):

      Информация

      Информация

        Посетители, находящиеся в группе Гости, не могут оставлять комментарии в данной новости.

        ↓ Меню



        ↓ Опрос

        А Вы добавили сайт в закладки?
        Да
        Не


        Top 10 за неделю (Фильмы)