.
Авторизация | Регистрация
Хочешь лучшие торренты? Добавь свой email!
Добавить
» » Игра Эндера / Enders Game (2013) BDRip-AVC | Чистый звук скачать через торрент бесплатно




    Игра Эндера / Enders Game (2013) BDRip-AVC | Чистый звук скачать через торрент бесплатно

    Опубликовал: Админ | Дата: 27-02-2015, 11:10 | Просмотров: 257



    Детально о кино
    Русское название: Игра Эндера
    Русское название в мировом прокате: Ender;s Game
    Создали в: 2013
    Категория жанра: фантастика, боевик, приключения
    Снималось в: США / Summit Entertainment
    Время просмотра: 01:53:48
    Тип перевода: Дублированное Чистый звук
    Субтитры: Aнглийский (Full, SDH, SDH-Colored)

    Главный режиссер: Гэвин Худ

    Актеры: Эйса Баттерфилд, Харрисон Форд, Бен Кингсли, Виола Дэвис, Хейли Стайнфелд, Эбигейл Бреслин, Арамис Найт, Сурадж Партха, Мойзес Ариас, Кайлин Рамбо

    Сюжет фильма: Действие ленты происходит в 2136 году. Будущее Земли не так радужно, как представлялось оно людям. Инопланетные расы начали постоянно вторгаться на людскую, стараясь уничтожить всё человечество. Элитная школа подготавливает самых крепких ребят для борьбы с инопланетянами. Главный герой ленты один из учеников подросток Эндрю Виггин, которого будет готовить полковник Хайрам Графф и полководец Мэзер Ракхейм изменит судьбу всего человечества. И мир ждет с нетерпением выхода этой кинокартины, ведь в своей основе она содержит одноименный рассказ от Орсона Скотта Карда, у которого уже есть многомиллионная аудитория почитателей. Станет ли кинокартина такая же уникальная и непревзойденная как книга, судить лишь зрителю…



    Файл
    Тип видео: H264
    Качество фильма: BDRip (AVC)
    Информация о видео: 1024 x 426 (2.404) at 23.976 fps, ~ 1975 Кбит/сек, 0.189 Bits/Pixel
    Информация о звуке #1: AC3 384 Кбит/сек (6ch), 48,0 КГц, 16 бит Русский, дубляж
    Информация о звуке #2: AC3 384 Кбит/сек (6ch), 48,0 КГц, 16 бит Английский
    Семпл

    P.S.Отдельная благодарность WetY за звуковую дорожку ac3 5.1

    Релиз подготовил:
    MI
    Формат : Matroska
    Версия формата : Version 2
    Размер файла : 2,18 Гбайт
    Продолжительность : 1 ч. 53 м.
    Общий поток : 2743 Кбит/сек
    Название фильма : Igra.Endera.2013.BDRip.h264.2.18GB.
    Дата кодирования : UTC 2014-02-02 11:29:05
    Программа кодирования : mkvmerge v2.9.9 (;Tutu;) built on Nov 25 2009 21:13:32
    Библиотека кодирования : libebml v0.7.9 libmatroska v0.8.1

    Видео
    Идентификатор : 1
    Формат : AVC
    Формат/Информация : Advanced Video Codec
    Профиль формата : High@L4.1
    Параметр CABAC формата : Да
    Параметр ReFrames формата : 12 кадров
    Идентификатор кодека : V_MPEG4/ISO/AVC
    Продолжительность : 1 ч. 53 м.
    Битрейт : 1975 Кбит/сек
    Ширина : 1024 пикселя
    Высота : 426 пикселей
    Соотношение сторон : 2,40:1
    Режим частоты кадров : Постоянный
    Частота кадров : 23,976 кадра/сек
    Цветовое пространство : YUV
    Субдискретизация насыщенности : 4:2:0
    Битовая глубина : 8 бит
    Тип развёртки : Прогрессивная
    Бит/(Пиксели*Кадры) : 0.189
    Размер потока : 1,53 Гбайт (70%)
    Заголовок :
    Библиотека кодирования : x264 core 133 r2334 a3ac64b
    Настройки программы : cabac=1 / ref=12 / deblock=1:-3:-3 / analyse=0x3:0x113 / me=umh / subme=11 / psy=1 / psy_rd=1.00:0.25 / mixed_ref=0 / me_range=32 / chroma_me=1 / trellis=2 / 8x8dct=1 / cqm=0 / deadzone=21,11 / fast_pskip=1 / chroma_qp_offset=-4 / threads=12 / lookahead_threads=2 / sliced_threads=0 / nr=0 / decimate=0 / interlaced=0 / bluray_compat=0 / constrained_intra=0 / bframes=8 / b_pyramid=2 / b_adapt=2 / b_bias=0 / direct=3 / weightb=1 / open_gop=0 / weightp=2 / keyint=240 / keyint_min=23 / scenecut=40 / intra_refresh=0 / rc_lookahead=40 / rc=2pass / mbtree=1 / bitrate=1975 / ratetol=1.0 / qcomp=0.70 / qpmin=0 / qpmax=69 / qpstep=4 / cplxblur=20.0 / qblur=0.5 / vbv_maxrate=62500 / vbv_bufsize=78125 / nal_hrd=none / ip_ratio=1.40 / aq=1:1.00
    Язык : English
    Default : Нет
    Forced : Нет

    Аудио #1
    Идентификатор : 2
    Формат : AC-3
    Формат/Информация : Audio Coding 3
    Расширение режима : CM (complete main)
    Параметр Endianness формата : Big
    Идентификатор кодека : A_AC3
    Продолжительность : 1 ч. 53 м.
    Вид битрейта : Постоянный
    Битрейт : 384 Кбит/сек
    Каналы : 6 каналов
    Расположение каналов : Front: L C R, Side: L R, LFE
    Частота : 48,0 КГц
    Битовая глубина : 16 бит
    Метод сжатия : С потерями
    Размер потока : 313 Мбайт (14%)
    Заголовок : AC3.384Kbps (6ch) Russian (Дубляж Line)
    Язык : Russian
    Default : Да
    Forced : Нет

    Аудио #2
    Идентификатор : 3
    Формат : AC-3
    Формат/Информация : Audio Coding 3
    Расширение режима : CM (complete main)
    Параметр Endianness формата : Big
    Идентификатор кодека : A_AC3
    Продолжительность : 1 ч. 53 м.
    Вид битрейта : Постоянный
    Битрейт : 384 Кбит/сек
    Каналы : 6 каналов
    Расположение каналов : Front: L C R, Side: L R, LFE
    Частота : 48,0 КГц
    Битовая глубина : 16 бит
    Метод сжатия : С потерями
    Размер потока : 313 Мбайт (14%)
    Заголовок : AC3.384Kbps (6ch) English
    Язык : English
    Default : Нет
    Forced : Нет

    Текст #1
    Идентификатор : 4
    Формат : UTF-8
    Идентификатор кодека : S_TEXT/UTF8
    Идентификатор кодека/Информация : UTF-8 Plain Text
    Заголовок : English (Full)
    Язык : English
    Default : Нет
    Forced : Нет

    Текст #2
    Идентификатор : 5
    Формат : UTF-8
    Идентификатор кодека : S_TEXT/UTF8
    Идентификатор кодека/Информация : UTF-8 Plain Text
    Заголовок : English (SDH)
    Язык : English
    Default : Нет
    Forced : Нет

    Текст #3
    Идентификатор : 6
    Формат : UTF-8
    Идентификатор кодека : S_TEXT/UTF8
    Идентификатор кодека/Информация : UTF-8 Plain Text
    Заголовок : English (SDH-Colored)
    Язык : English
    Default : Нет
    Forced : Нет

    Меню
    00:00:00.000 : :Chapter 01
    00:06:10.578 : :Chapter 03
    00:14:18.566 : :Chapter 05
    00:19:06.144 : :Chapter 07
    00:28:07.143 : :Chapter 09
    00:33:29.590 : :Chapter 11
    00:39:34.663 : :Chapter 13
    00:45:43.407 : :Chapter 15
    00:53:37.714 : :Chapter 17
    01:02:15.606 : :Chapter 19
    01:09:21.949 : :Chapter 21
    01:15:16.887 : :Chapter 23
    01:23:38.304 : :Chapter 25
    01:30:54.824 : :Chapter 27
    01:35:43.279 : :Chapter 29
    01:41:12.858 : :Chapter 31
    01:53:48.613 : :Chapter 32
    Скриншоты для ознакомления


    Размер скачиваемого торрента: 2.18 GB (2341159799 Bytes)

    Игра Эндера / Enders Game (2013) BDRip-AVC | Чистый звук скачать через торрент бесплатно
    загрузка...
    Рейтинг →
     (голосов: 1, оценка 5/5, голосовать можно 1 раз )

    Другие торренты по теме:

  • Орсон Скотт Кард - Игра Эндера (2009) MP3
  • OST - Игра Эндера / Enders Game (2013) FLAC скачать через торрент бесплатно
  • Игра Эндера (2013) HDRip лицензия
  • Игра Эндера / Enders Game (2013) TS
  • Игра Эндера / Enders Game (2013) HDTVRip 720p | Звук TS скачать через торрент бесплатно
  • Игра Эндера / Enders Game (2013) HDTVRip | Звук TS скачать через торрент бесплатно
  • Игра Эндера / Enders Game (2013) HDTV 720p | Звук с TS
  • Игра Эндера / Enders Game (2013) WEB-DL 1080p | Звук с TS скачать через торрент бесплатно


    • Комментарии (0):

      Информация

      Информация

        Посетители, находящиеся в группе Гости, не могут оставлять комментарии в данной новости.

        ↓ Меню



        ↓ Опрос

        А Вы добавили сайт в закладки?
        Да
        Не


        Top 10 за месяц (Фильмы)