.
Авторизация | Регистрация
Хочешь лучшие торренты? Добавь свой email!
Добавить
» » Франция, 1788 1 / 2 / 1788... et demi (2010) SATRip от NovaLan скачать через торрент бесплатно




    Франция, 1788 1 / 2 / 1788... et demi (2010) SATRip от NovaLan скачать через торрент бесплатно

    Опубликовал: Админ | Дата: 27-02-2015, 11:10 | Просмотров: 520




    Детально о киноФранция, 1788 1/2
    Русское название в мировом прокате: 1788... et demi
    Создали в: 2010
    Категория жанра: Исторический
    Главный режиссер: Оливье Гиньяр
    Актеры: Сэм Карманн, Жюли Вуазен, Лу де Лааж, Камилла Кларис, Юбер Кунде, Брюно Дебрандт, Франсуа Лорике, Наташа Линдинжер, Филипп Дюкло, Маива Паскуали

    Сюжет фильма: 1788 год. До Великой французской революции — несколько месяцев. Граф Франсуа де Сент-Азюр, изобретатель и военный, живет беспечно в своем поместье с дочерьми — Виктуар, Полиной и Шарлоттой. Граф создает и испытывает пушки, которые должны разгромить английский флот. Дочери находят развлечения, каждая в своем: Виктуар — в науке и оккультизме, Шарлотта — в овладении оружием, Полина в чувственных наслаждениях. Никто не замечает настроений крестьян, пока не исчезает юная служанка Нинон.



    Снималось в: Франция
    Киностудия: DEMD Productions
    Время просмотра: 6 х ~ 00:50:00
    Перевод текста: Профессиональный многоголосый


    Файл
    Тип релиза: AVI
    Информация о видео: XviD, ~ 1229 Кбит/с, 720х400
    Информация о звуке: АС3, 2 ch, 192 Кбит/с

    Семпл


    MediaInfo
    Общее
    Полное имя : D:1ААА1 серия.avi
    Формат : AVI
    Формат/Информация : Audio Video Interleave
    Размер файла : 451 Мбайт
    Продолжительность : 44 м.
    Общий поток : 1427 Кбит/сек
    Программа кодирования : VirtualDubMod 1.5.10.3 | www.virtualdub-fr.org || (build 2550/release)
    Библиотека кодирования : VirtualDubMod build 2550/release

    Видео
    Идентификатор : 0
    Формат : MPEG-4 Visual
    Профиль формата : Advanced Simple@L5
    Параметр BVOP формата : 2
    Параметр QPel формата : Нет
    Параметр GMC формата : Без точки перехода
    Параметр матрицы формата : Default (MPEG)
    Режим смешивания : Сжатый битовый поток
    Идентификатор кодека : XVID
    Идентификатор кодека/Подсказка : XviD
    Продолжительность : 44 м.
    Битрейт : 1226 Кбит/сек
    Ширина : 720 пикселей
    Высота : 400 пикселей
    Соотношение сторон : 16:9
    Частота кадров : 23,976 кадра/сек
    Цветовое пространство : YUV
    Субдискретизация насыщенности : 4:2:0
    Битовая глубина : 8 бит
    Тип развёртки : Прогрессивная
    Метод сжатия : С потерями
    Бит/(Пиксели*Кадры) : 0.178
    Размер потока : 388 Мбайт (86%)
    Библиотека кодирования : XviD 1.2.1 (UTC 2008-12-04)

    Аудио
    Идентификатор : 1
    Формат : AC-3
    Формат/Информация : Audio Coding 3
    Расширение режима : CM (complete main)
    Параметр Endianness формата : Big
    Идентификатор кодека : 2000
    Продолжительность : 44 м.
    Вид битрейта : Постоянный
    Битрейт : 192 Кбит/сек
    Каналы : 2 канала
    Расположение каналов : Front: L R
    Частота : 48,0 КГц
    Битовая глубина : 16 бит
    Метод сжатия : С потерями
    Размер потока : 60,7 Мбайт (13%)
    Выравнивание : Разделение по промежуткам
    Продолжительность промежутка : 42 мс. (1,00 видеокадр)
    Время предзагрузки промежутка : 500 мс.







    Скриншоты для ознакомления


    Релиз группа:

    Автор рипа:
    Залил: YArl
    Размер скачиваемого торрента: 2.65 GB (2843947008 Bytes)

    Франция, 1788 1/2 / 1788... et demi (2010) SATRip от NovaLan скачать через торрент бесплатно
    загрузка...
    Рейтинг →
     (голосов: 1, оценка 5/5, голосовать можно 1 раз )

    Другие торренты по теме:

  • Познавательное ТВ: Как живёт Франция (2012) HDTV
  • Познавательное ТВ: Как живёт Франция (2012) HDTVRip
  • Да здравствует Франция (2013)
  • Да здравствует Франция! / Vive la France (2013) HDRip | Лицензия скачать через торрент бесплатно
  • Да здравствует Франция! / Vive la France (2013) HDRip-AVC | Лицензия скачать через торрент бесплатно
  • Да здравствует Франция! / Vive la France (2013) BDRip 720p | Лицензия скачать через торрент бесплатно
  • Да здравствует Франция! / Vive la France (2013) BDRip-AVC от MediaClub | Лицензия
  • Да здравствует Франция! / Vive la France (2013) BDRip-AVC от HELLYWOOD | Лицензия скачать через торрент бесплатно


    • Комментарии (0):

      Информация

      Информация

        Посетители, находящиеся в группе Гости, не могут оставлять комментарии в данной новости.

        ↓ Меню



        ↓ Опрос

        А Вы добавили сайт в закладки?
        Да
        Не


        Top 10 за месяц (Фильмы)