.
Авторизация | Регистрация
» » Путь Баннена / The Bannen Way (2009-2010) HDTVRip 720p | P скачать через торрент бесплатно




    Путь Баннена / The Bannen Way (2009-2010) HDTVRip 720p | P скачать через торрент бесплатно

    Опубликовал: Админ | Дата: 27-02-2015, 11:10 | Просмотров: 186



    Детально о кино
    Русское название: Путь Баннена
    Русское название в мировом прокате: The Bannen Way
    Создали в: 2009-2010
    Категория жанра: боевик, триллер, комедия
    Главный режиссер: Джесси Уоррен
    Актеры: Марк Гант, Ванесса Марсил, Майкл Айронсайд, Габриэль Тигерман, Роберт Форстер, Михаэль Лернер, Скай Карр, Аутум Рейзер, Брайн Дэвис, Британи Ишибаши, Брайн Фаер, Роман Варшавский, Паул Дюк, Дин Крейлинг, Джеф Ньюман

    Сюжет фильма:
    Нил Баннен - высокий, стройный, сексуальный, но очень скользкий тип, к тому же дымит как паровоз и любит воровать. Его отец - шеф полиции, а дядя - босс мафии. Его слабость - красивые женщины. Он азартен и опасен. Он получает все что хочет… вот только завязать с преступным миром почему-то не получается. Но было бы желание.



    Снималось в: США
    Киностудия: SPwrite Productions
    Время просмотра: 01:29:22
    Перевод текста: Профессиональный (многоголосый, закадровый) SET Россия

    Файл
    Кодек для видео: h.264
    Качество фильма: HDTVRip 720p
    Информация о видео: 1280x704, x264@L4.1, ~4481 kbps
    Информация о звуке #1: Русский: AC3, 2/0 (L,R) ch, ~192 kbps
    Информация о звуке #2: Английский: AC3, 3/2 (L,C,R,l,r) LFE ch, ~640 kbps
    Сезон 1: Эпизоды
    Эпизод 1 - Жизнь — сплошной криминал / The Criminal Lifestyle
    Эпизод 2 - Предложение / The Offer
    Эпизод 3 - Третий удар / The Third Strike
    Эпизод 4 - Другое предложение / The Proposition
    Эпизод 5 - Трио убийц / The Assassin Trio
    Эпизод 6 - В неоплатном долгу / The Unpaid Debt
    Эпизод 7 - Подготовка / The Prep Day
    Эпизод 8 - Секс вечеринка / The Sex Party
    Эпизод 9 - Ловля на живца / The Bait
    Эпизод 10 - Погоня /The Chase
    Эпизод 11 - Доставка / The Drop
    Эпизод 12 - Конкуренция / The Rivalry
    Эпизод 13 - Вражда /The Grudge
    Эпизод 14 - Семейная тайна / The Family Secret
    Эпизод 15 - Правда / The Truth
    Эпизод 16 - Новый Баннен / The New Bannen
    Цитата

    За запись звука спасибо SergeyG.
    На IMDB и кинопоиске адекватной ссылки на WEB сериал нет, только на фильм.
    Так же этот веб сериал показывали по 2х2 в рандомное время в перерывах. М.б. у кого-то есть записи...
    Все эпизоды записаны одним файлом. Эта запись с немецкого тв, естественно показывали их подряд.
    MI
    Общее
    Уникальный идентификатор : 180407667953423399497226368694558750227 (0x87B940C4023FFCFC8ADA382A3EF57613)
    Полное имя : G:Путь Баннена The Bannen Way (2009-2010) WEB-Series 720p HDTVRipThe.Bannen.Way.2009-2010.720p.HDTV.Rus.Eng.HDCLUB.mkv
    Формат : Matroska
    Версия формата : Version 4 / Version 2
    Размер файла : 3,32 Гбайт
    Продолжительность : 1 ч. 29 м.
    Общий поток : 5314 Кбит/сек
    Дата кодирования : UTC 2014-02-26 18:43:33
    Программа кодирования : mkvmerge v6.6.0 (;The Edge Of The In Between;) built on Dec 1 2013 17:55:00
    Библиотека кодирования : libebml v1.3.0 libmatroska v1.4.1

    Видео
    Идентификатор : 1
    Формат : AVC
    Формат/Информация : Advanced Video Codec
    Профиль формата : High@L4.1
    Параметр CABAC формата : Да
    Параметр ReFrames формата : 5 кадров
    Идентификатор кодека : V_MPEG4/ISO/AVC
    Продолжительность : 1 ч. 29 м.
    Битрейт : 4481 Кбит/сек
    Ширина : 1280 пикселей
    Высота : 704 пикселя
    Соотношение сторон : 16:9
    Режим частоты кадров : Постоянный
    Частота кадров : 25,000 кадров/сек
    Цветовое пространство : YUV
    Субдискретизация насыщенности : 4:2:0
    Битовая глубина : 8 бит
    Тип развёртки : Прогрессивная
    Бит/(Пиксели*Кадры) : 0.199
    Размер потока : 2,73 Гбайт (82%)
    Заголовок : The Bannen Way 2009-2010. Episode 01-16. WEB-Series
    Библиотека кодирования : x264 core 115 r1995 c1e60b9
    Настройки программы : cabac=1 / ref=5 / deblock=1:0:0 / analyse=0x3:0x113 / me=umh / subme=7 / psy=1 / psy_rd=1.00:0.00 / mixed_ref=1 / me_range=16 / chroma_me=1 / trellis=1 / 8x8dct=1 / cqm=0 / deadzone=21,11 / fast_pskip=0 / chroma_qp_offset=-2 / threads=12 / sliced_threads=0 / nr=0 / decimate=1 / interlaced=0 / bluray_compat=0 / constrained_intra=0 / bframes=3 / b_pyramid=2 / b_adapt=1 / b_bias=0 / direct=1 / weightb=1 / open_gop=0 / weightp=2 / keyint=250 / keyint_min=25 / scenecut=40 / intra_refresh=0 / rc_lookahead=40 / rc=2pass / mbtree=1 / bitrate=4481 / ratetol=1.0 / qcomp=0.60 / qpmin=0 / qpmax=69 / qpstep=4 / cplxblur=20.0 / qblur=0.5 / ip_ratio=1.40 / aq=1:1.00
    Язык : English
    Default : Да
    Forced : Нет

    Аудио #1
    Идентификатор : 2
    Формат : AC-3
    Формат/Информация : Audio Coding 3
    Расширение режима : CM (complete main)
    Параметр Endianness формата : Big
    Идентификатор кодека : A_AC3
    Продолжительность : 1 ч. 29 м.
    Вид битрейта : Постоянный
    Битрейт : 192 Кбит/сек
    Каналы : 2 канала
    Расположение каналов : Front: L R
    Частота : 48,0 КГц
    Битовая глубина : 16 бит
    Метод сжатия : С потерями
    Размер потока : 123 Мбайт (4%)
    Заголовок : AC3 2.0 @ 192 kbps - SET Россия
    Язык : Russian
    Default : Да
    Forced : Нет

    Аудио #2
    Идентификатор : 3
    Формат : AC-3
    Формат/Информация : Audio Coding 3
    Расширение режима : CM (complete main)
    Параметр Endianness формата : Big
    Идентификатор кодека : A_AC3
    Продолжительность : 1 ч. 29 м.
    Вид битрейта : Постоянный
    Битрейт : 640 Кбит/сек
    Каналы : 6 каналов
    Расположение каналов : Front: L C R, Side: L R, LFE
    Частота : 48,0 КГц
    Битовая глубина : 16 бит
    Метод сжатия : С потерями
    Размер потока : 409 Мбайт (12%)
    Заголовок : AC3 5.1 @ 640 kbps
    Язык : English
    Default : Нет
    Forced : Нет

    Скриншоты для ознакомления

    Размер скачиваемого торрента: 3.32 GB (3561965821 Bytes)

    Путь Баннена / The Bannen Way (2009-2010) HDTVRip 720p | P скачать через торрент бесплатно
    загрузка...
    Рейтинг →
     (голосов: 1, оценка 4/5, голосовать можно 1 раз )

    Другие торренты по теме:

  • Путь Баннена / The Bannen Way (2010) DVDRip-AVC от UAGet торрент скачать бесплатно


    • Комментарии (0):

      Информация

      Информация

        Посетители, находящиеся в группе Гости, не могут оставлять комментарии в данной новости.

        ↓ Меню



        ↓ Опрос

        А Вы добавили сайт в закладки?
        Да
        Не


        Top 10 за неделю (Фильмы)