.
Авторизация | Регистрация
Хочешь лучшие торренты? Добавь свой email!
Добавить
» » Позывной Стая (2013) DVDRip от NovaLan скачать через торрент бесплатно




    Позывной Стая (2013) DVDRip от NovaLan скачать через торрент бесплатно

    Опубликовал: Админ | Дата: 27-02-2015, 11:10 | Просмотров: 341





    Снималось в: Россия
    Создали в: Кинокомпания ВГТРК
    Категория жанра: Боевик
    Создали в: 2013

    Время просмотра: 8 x ~ 00:45:00


    Язык:Русский


    Главный режиссер: Андрей Щербинин


    Актеры: Евгений Сидихин, Сергей Воробьёв, Петр Логачев, Полина Сидихина, Юрий Уткин, Руслан Кацагаджиев, Евгений Кушпель, Андрей Перович, Юрий Томилин, Геннадий Казачков


    Сюжет: В центре событий — боевая группа наёмных военных под названием Стая. Стив, Бес, Шаман, Ронин и Лаванда — военные профессионалы с большим опытом, работающие под прикрытием российских спецслужб.



    Исходник: DVD9 R5

    Тип релиза: DVDRip

    Контейнер: AVI


    Информация о видео: XviD, ~ 1327 Кбит/с, 720х400
    Информация о звуке: АС3, 2 ch, 192 Кбит/с



    MediaInfo
    Общее
    Полное имя : D:1АААПозывной Стая1 серия.avi
    Формат : AVI
    Формат/Информация : Audio Video Interleave
    Размер файла : 481 Мбайт
    Продолжительность : 44 м.
    Общий поток : 1525 Кбит/сек
    Программа кодирования : VirtualDubMod 1.5.10.3 | www.virtualdub-fr.org || (build 2550/release)
    Библиотека кодирования : VirtualDubMod build 2550/release

    Видео
    Идентификатор : 0
    Формат : MPEG-4 Visual
    Профиль формата : Advanced Simple@L5
    Параметр BVOP формата : 2
    Параметр QPel формата : Нет
    Параметр GMC формата : Без точки перехода
    Параметр матрицы формата : Default (MPEG)
    Режим смешивания : Сжатый битовый поток
    Идентификатор кодека : XVID
    Идентификатор кодека/Подсказка : XviD
    Продолжительность : 44 м.
    Битрейт : 1323 Кбит/сек
    Ширина : 720 пикселей
    Высота : 400 пикселей
    Соотношение сторон : 16:9
    Частота кадров : 23,976 кадра/сек
    Цветовое пространство : YUV
    Субдискретизация насыщенности : 4:2:0
    Битовая глубина : 8 бит
    Тип развёртки : Прогрессивная
    Метод сжатия : С потерями
    Бит/(Пиксели*Кадры) : 0.192
    Размер потока : 417 Мбайт (87%)
    Библиотека кодирования : XviD 1.2.1 (UTC 2008-12-04)

    Аудио
    Идентификатор : 1
    Формат : AC-3
    Формат/Информация : Audio Coding 3
    Расширение режима : CM (complete main)
    Параметр Endianness формата : Big
    Идентификатор кодека : 2000
    Продолжительность : 44 м.
    Вид битрейта : Постоянный
    Битрейт : 192 Кбит/сек
    Каналы : 2 канала
    Расположение каналов : Front: L R
    Частота : 48,0 КГц
    Битовая глубина : 16 бит
    Метод сжатия : С потерями
    Размер потока : 60,5 Мбайт (13%)
    Выравнивание : Разделение по промежуткам
    Продолжительность промежутка : 42 мс. (1,00 видеокадр)
    Время предзагрузки промежутка : 500 мс.







    Скриншоты для ознакомления




    Релиз группа:

    Автор рипа:
    Залил: YArl
    Размер скачиваемого торрента: 3.76 GB (4036272128 Bytes)

    Позывной Стая (2013) DVDRip от NovaLan скачать через торрент бесплатно
    загрузка...
    Рейтинг →
     (голосов: 1, оценка 3/5, голосовать можно 1 раз )

    Другие торренты по теме:

  • Позывной Стая (2013) SATRip от Files-x скачать через торрент бесплатно
  • Позывной Стая (2013) SATRip
  • Позывной Стая 2 (1-4 серии из 4)
  • Позывной Стая 2 (2014) SATRip от Files-x
  • Позывной Стая 2 (1-8 серии из 12)
  • Позывной Стая 2 (1-4 серии из 12)
  • Позывной Стая 2 (1-8 серия из 12)


    • Комментарии (0):

      Информация

      Информация

        Посетители, находящиеся в группе Гости, не могут оставлять комментарии в данной новости.

        ↓ Меню



        ↓ Опрос

        А Вы добавили сайт в закладки?
        Да
        Не


        Top 10 за месяц (Фильмы)