.
Авторизация | Регистрация
Хочешь лучшие торренты? Добавь свой email!
Добавить
» » Облако 9 / Cloud 9 (2014) WEB-DL 720p от CINEMANIA | D торрент скачать бесплатно




    Облако 9 / Cloud 9 (2014) WEB-DL 720p от CINEMANIA | D торрент скачать бесплатно

    Опубликовал: Админ | Дата: 27-02-2015, 11:10 | Просмотров: 231



    Детально о кино
    Русское название: Облако 9
    Русское название в мировом прокате: Cloud 9
    Создали в: 2014
    Категория жанра: драма, мелодрама, спорт
    Главный режиссер: Пол Хоэн
    Актеры: Дав Кэмерон, Люк Бенуорд, Кирси Клемонс, Майк С. Мэннинг, Диллон Лэйн, Карлон Джеффери, Эндрю Колдуэлл, Патрик Фабиан, Эми Фаррингтон, Джеффри Нордлинг

    Сюжет фильма:
    Очаровательная Кайла — восходящая звезда сноуборда. Она покидает свою команду, чтобы сосредоточиться на тренировках с известным сноубордистом по имени Уилл, который долгое время не принимает участия в соревнованиях. Наставник показывает Кайле совершенно новую технику катания и обещает, что девушка станет одной из лучших спортсменок сезон любимого сериалаа. Отзывчивая Кайла старается помочь Уиллу обрести веру в себя и убеждает его не останавливаться на результатах, достигнутых в прошлом.



    Снималось в: США
    Время просмотра: 01:27:28
    Тип перевода: Дублированное канал Disney

    Файл
    Тип видео: MKV
    Качество фильма: WEB-DL 720p TVSmash
    Информация о видео: 3907 kb/s, 1280x720
    Информация о звуке: Russian: AC3, 192 kb/s (2 ch) / English: AC3, 384 kb/s (6 ch)
    Субтитры: English
    Размер скачиваемого торрента: 2.80 GB
    Скачать: Сэмпл

    Релиз группы:



    NFO
    Общее
    Cloud.9.2014.WEB-DL.720p.CINEMANIA.mkv
    Формат : Matroska
    Версия формата : Version 4 / Version 2
    Размер файла : 2,80 Гбайт
    Продолжительность : 1 ч. 27 м.
    Общий поток : 4574 Кбит/сек
    Название фильма : Release Group CINEMANIA
    Дата кодирования : UTC 2014-03-01 20:19:33
    Программа кодирования : mkvmerge v6.7.0 (;Back to the Ground;) 64bit built on Jan 8 2014 15:10:52
    Библиотека кодирования : libebml v1.3.0 libmatroska v1.4.1

    Видео
    Идентификатор : 1
    Формат : AVC
    Формат/Информация : Advanced Video Codec
    Профиль формата : High@L3.1
    Параметр CABAC формата : Нет
    Параметр ReFrames формата : 2 кадра
    Идентификатор кодека : V_MPEG4/ISO/AVC
    Продолжительность : 1 ч. 27 м.
    Битрейт : 3907 Кбит/сек
    Ширина : 1280 пикселей
    Высота : 720 пикселей
    Соотношение сторон : 16:9
    Режим частоты кадров : Постоянный
    Частота кадров : 23,976 кадра/сек
    Цветовое пространство : YUV
    Субдискретизация насыщенности : 4:2:0
    Битовая глубина : 8 бит
    Тип развёртки : Прогрессивная
    Бит/(Пиксели*Кадры) : 0.177
    Размер потока : 2,39 Гбайт (85%)
    Заголовок : Release Group CINEMANIA
    Язык : English
    Default : Да
    Forced : Нет
    Основные цвета : BT.709
    Характеристики трансфера : BT.709
    Коэффициенты матрицы : BT.709

    Аудио #1
    Идентификатор : 2
    Формат : AC-3
    Формат/Информация : Audio Coding 3
    Расширение режима : CM (complete main)
    Параметр Endianness формата : Big
    Идентификатор кодека : A_AC3
    Продолжительность : 1 ч. 27 м.
    Вид битрейта : Постоянный
    Битрейт : 192 Кбит/сек
    Каналы : 2 канала
    Расположение каналов : Front: L R
    Частота : 48,0 КГц
    Битовая глубина : 16 бит
    Метод сжатия : С потерями
    Размер потока : 120 Мбайт (4%)
    Заголовок : канал Disney - Дубляж
    Язык : Russian
    Default : Да
    Forced : Да

    Аудио #2
    Идентификатор : 3
    Формат : AC-3
    Формат/Информация : Audio Coding 3
    Расширение режима : CM (complete main)
    Параметр Endianness формата : Big
    Идентификатор кодека : A_AC3
    Продолжительность : 1 ч. 27 м.
    Вид битрейта : Постоянный
    Битрейт : 384 Кбит/сек
    Каналы : 6 каналов
    Расположение каналов : Front: L C R, Side: L R, LFE
    Частота : 48,0 КГц
    Битовая глубина : 16 бит
    Метод сжатия : С потерями
    Размер потока : 240 Мбайт (8%)
    Язык : English
    Default : Нет
    Forced : Нет

    Текст
    Идентификатор : 4
    Формат : UTF-8
    Идентификатор кодека : S_TEXT/UTF8
    Идентификатор кодека/Информация : UTF-8 Plain Text
    Язык : English
    Default : Нет
    Forced : Нет

    Залил: DGEKIGAN
    Размер скачиваемого торрента: 2.80 GB (3002581692 Bytes)

    Облако 9 / Cloud 9 (2014) WEB-DL 720p от CINEMANIA | D торрент скачать бесплатно
    загрузка...
    Рейтинг →
     (голосов: 1, оценка 4/5, голосовать можно 1 раз )

    Другие торренты по теме:

  • Облако 9 / Cloud 9 (2006) DVDRip
  • Облако 9 / Cloud 9 (2014) WEB-DLRip
  • Облако 9 / Cloud 9 (2014) Web-DLRip от Torrange | D скачать через торрент бесплатно
  • Облако 9 / Трамплин Надежды / Cloud 9 (2014) WEB-DLRip от Deadmauvlad | D | Disney
  • Трамплин Надежды / Облако 9 / Cloud 9 (2014) WEB-DLRip от Deadmauvlad | D | Disney


    • Комментарии (0):

      Информация

      Информация

        Посетители, находящиеся в группе Гости, не могут оставлять комментарии в данной новости.

        ↓ Меню



        ↓ Опрос

        А Вы добавили сайт в закладки?
        Да
        Не


        Top 10 за месяц (Фильмы)