.
Авторизация | Регистрация
Хочешь лучшие торренты? Добавь свой email!
Добавить
» » Взрыв / Blast (2004) DVDRip от NovaLan | P, A торрент скачать бесплатно




    Взрыв / Blast (2004) DVDRip от NovaLan | P, A торрент скачать бесплатно

    Опубликовал: Админ | Дата: 27-02-2015, 11:10 | Просмотров: 281





    Снималось в: Германия, ЮАР, США
    Создали в: Motion Picture Corporation of America (MPCA), International West Pictures (IWP), Gemini Film
    Категория жанра: Боевик
    Создали в: 2004

    Время просмотра: 01:28:14


    Перевод текста: Профессиональный многоголосый, авторский

    Оригинальная аудиодорожка: Английская


    Главный режиссер: Энтони Хикокс


    Актеры: Эдди Гриффин, Винни Джонс, Брекин Мейер, Шэгги, Надин Веласкес, Ханнес Енике, Том Тайни Листер мл., Уорвик Грайр, Вивика А. Фокс


    Сюжет: Шальные деньги заставили капитана Диксона пойти в этот рейс. Дело обычное — отогнать старый танкер в Калифорнийскую бухту. Но пассажиры судна оказались террористами. Их босс — головорез Киттридж — задумал ограбление века. Под его прицелом — главные банки ведущих стран. Замести следы должен мощный взрыв электромагнитной бомбы, который готовят боевики. Отважному Диксону не одолеть врагов в одиночку. Встанут ли его друзья на путь предательства? Это вопрос жизни и смерти, и не только для Диксона, но и для всего мира.



    Исходник: DVD5 R5

    Тип релиза: DVDRip

    Контейнер: AVI


    Информация о видео: XviD, 2188 Кбит/с, 704х528
    Информация о звуке: Русский, английский (АС3, 6 ch, 384 Кбит/с), русский (АС3, 2 ch, 192 Кбит/с)

    Перевод

    Аудио#1: Профессиональный многоголосый
    Аудио#2: Профессиональный многоголосый
    Аудио#3: Авторский (Гранкин)
    Аудио#4: Английский



    MediaInfo
    Общее
    Полное имя : D:1АААВзрыв.avi
    Формат : AVI
    Формат/Информация : Audio Video Interleave
    Профиль формата : OpenDML
    Размер файла : 2,05 Гбайт
    Продолжительность : 1 ч. 28 м.
    Общий поток : 3322 Кбит/сек
    Программа кодирования : VirtualDubMod 1.5.10.2 (build 2540/release)
    Библиотека кодирования : VirtualDubMod build 2540/release

    Видео
    Идентификатор : 0
    Формат : MPEG-4 Visual
    Профиль формата : Advanced Simple@L5
    Параметр BVOP формата : 2
    Параметр QPel формата : Нет
    Параметр GMC формата : Без точки перехода
    Параметр матрицы формата : Default (MPEG)
    Режим смешивания : Сжатый битовый поток
    Идентификатор кодека : XVID
    Идентификатор кодека/Подсказка : XviD
    Продолжительность : 1 ч. 28 м.
    Битрейт : 1820 Кбит/сек
    Ширина : 704 пикселя
    Высота : 528 пикселей
    Соотношение сторон : 4:3
    Частота кадров : 23,976 кадра/сек
    Цветовое пространство : YUV
    Субдискретизация насыщенности : 4:2:0
    Битовая глубина : 8 бит
    Тип развёртки : Прогрессивная
    Метод сжатия : С потерями
    Бит/(Пиксели*Кадры) : 0.204
    Размер потока : 1,12 Гбайт (55%)
    Библиотека кодирования : XviD 1.2.1 (UTC 2008-12-04)

    Аудио #1
    Идентификатор : 1
    Формат : AC-3
    Формат/Информация : Audio Coding 3
    Расширение режима : CM (complete main)
    Параметр Endianness формата : Big
    Идентификатор кодека : 2000
    Продолжительность : 1 ч. 28 м.
    Вид битрейта : Постоянный
    Битрейт : 384 Кбит/сек
    Каналы : 6 каналов
    Расположение каналов : Front: L C R, Side: L R, LFE
    Частота : 48,0 КГц
    Битовая глубина : 16 бит
    Метод сжатия : С потерями
    Задержка видео : 4 с. 0 мс.
    Размер потока : 242 Мбайт (12%)
    Выравнивание : Разделение по промежуткам
    Продолжительность промежутка : 42 мс. (1,00 видеокадр)
    Время предзагрузки промежутка : 500 мс.

    Аудио #2
    Идентификатор : 2
    Формат : AC-3
    Формат/Информация : Audio Coding 3
    Расширение режима : CM (complete main)
    Параметр Endianness формата : Big
    Идентификатор кодека : 2000
    Продолжительность : 1 ч. 28 м.
    Вид битрейта : Постоянный
    Битрейт : 192 Кбит/сек
    Каналы : 2 канала
    Расположение каналов : Front: L R
    Частота : 48,0 КГц
    Битовая глубина : 16 бит
    Метод сжатия : С потерями
    Задержка видео : 6 с. 0 мс.
    Размер потока : 121 Мбайт (6%)
    Выравнивание : Разделение по промежуткам
    Продолжительность промежутка : 42 мс. (1,00 видеокадр)
    Время предзагрузки промежутка : 500 мс.

    Аудио #3
    Идентификатор : 3
    Формат : AC-3
    Формат/Информация : Audio Coding 3
    Расширение режима : CM (complete main)
    Параметр Endianness формата : Big
    Идентификатор кодека : 2000
    Продолжительность : 1 ч. 28 м.
    Вид битрейта : Постоянный
    Битрейт : 448 Кбит/сек
    Каналы : 6 каналов
    Расположение каналов : Front: L C R, Side: L R, LFE
    Частота : 48,0 КГц
    Битовая глубина : 16 бит
    Метод сжатия : С потерями
    Задержка видео : 6 с. 0 мс.
    Размер потока : 283 Мбайт (13%)
    Выравнивание : Разделение по промежуткам
    Продолжительность промежутка : 42 мс. (1,00 видеокадр)
    Время предзагрузки промежутка : 500 мс.

    Аудио #4
    Идентификатор : 4
    Формат : AC-3
    Формат/Информация : Audio Coding 3
    Расширение режима : CM (complete main)
    Параметр Endianness формата : Big
    Идентификатор кодека : 2000
    Продолжительность : 1 ч. 28 м.
    Вид битрейта : Постоянный
    Битрейт : 448 Кбит/сек
    Каналы : 6 каналов
    Расположение каналов : Front: L C R, Side: L R, LFE
    Частота : 48,0 КГц
    Битовая глубина : 16 бит
    Метод сжатия : С потерями
    Задержка видео : 6 с. 0 мс.
    Размер потока : 282 Мбайт (13%)
    Выравнивание : Разделение по промежуткам
    Продолжительность промежутка : 42 мс. (1,00 видеокадр)
    Время предзагрузки промежутка : 500 мс.







    Скриншоты для ознакомления




    Релиз группа:

    Автор рипа:
    Залил: YArl
    Размер скачиваемого торрента: 2.05 GB (2198048768 Bytes)

    Взрыв / Blast (2004) DVDRip от NovaLan | P, A торрент скачать бесплатно
    загрузка...
    Рейтинг →
     (голосов: 1, оценка 4/5, голосовать можно 1 раз )

    Другие торренты по теме:

  • Взрыв! / Бтууум! / Бтум! / BTOOOM! (2012) HDTVRip 1080p | Sub
  • Право голоса. Взрыв культур (2013) WEBRip
  • Взрыв из прошлого / Blast from the Past (1999) HDTVRip 720р | Полная версия
  • Взрыв из прошлого / Blast From The Past (1999) DVDRip | D | Театральная версия
  • Лазерный взрыв / Laserblast (1978) DVDRip от Кинорадиомагия скачать через торрент бесплатно
  • Большой взрыв / The Big Bang (2011) HDRip | P, P2, A скачать через торрент бесплатно
  • Сборник - Лучшая 100ка. Хитовый взрыв от Русского радио (2014) МР3
  • Сборник - Лучшая 100ка Хитовый взрыв на DFM (2014) MP3


    • Комментарии (0):

      Информация

      Информация

        Посетители, находящиеся в группе Гости, не могут оставлять комментарии в данной новости.

        ↓ Меню



        ↓ Опрос

        А Вы добавили сайт в закладки?
        Да
        Не


        Top 10 за месяц (Фильмы)