.
Авторизация | Регистрация
Хочешь лучшие торренты? Добавь свой email!
Добавить




Джеймси / Jamesy Boy (2014) BDRip торрент скачать бесплатно

Опубликовал: Админ | Дата: 27-02-2015, 11:10 | Просмотров: 293



Детально о кино
Русское название: Джеймси
Русское название в мировом прокате: Jamesy Boy
Создали в: 2014
Категория жанра: драма, мелодрама, криминал, семейный, музыка
Главный режиссер: Тревор Уайт
Актеры: Спенсер Лофранко, Мэри-Луиз Паркер, Винг Реймз, Джеймс Вудс, Таисса Фармига, Роза Салазар, Бен Розенфилд, Табу, Аарон Опара, Роберт Ф. Чю

Сюжет фильма:
Реальная история Джеймса Бёрнса, который еще подростком связался с уличными бандами Денвера и в результате попал в тюрьму строгого режима. Но, несмотря на всё это, Джеймс всё же верит в светлое будущее.




Снималось в: США
Киностудия: Gama Entertainment Partners, Star Thrower Entertainment, Synergics Films
Время просмотра: 01:49:34
Перевод текста: Любительский одноголосый - datynet

Файл
Кодек для видео: XviD
Качество фильма: BDRip (Исх. Blu-Ray Remux 1080p)
Информация о видео: 688x288 (2.39:1), 23.976 fps, XviD build 50 ~814 kbps avg, 0.17 bit/pixel
Информация о звуке: 48 kHz, MPEG Layer 3, 2 ch, ~128.00 kbps avg
Субтитры: нет

Семпл

MediaInfo

Общее
Полное имя : S:ФильмыДжеймси. 2014. BDRip.avi
Формат : AVI
Формат/Информация : Audio Video Interleave
Размер файла : 745 Мбайт
Продолжительность : 1 ч. 49 м.
Общий поток : 951 Кбит/сек
Программа кодирования : VirtualDubMod 1.5.10.3 | www.virtualdub-fr.org || (build 2550/release)
Библиотека кодирования : VirtualDubMod build 2550/release

Видео
Идентификатор : 0
Формат : MPEG-4 Visual
Профиль формата : Advanced Simple@L5
Параметр BVOP формата : 2
Параметр QPel формата : Нет
Параметр GMC формата : Без точки перехода
Параметр матрицы формата : Выборочная
Идентификатор кодека : XVID
Идентификатор кодека/Подсказка : XviD
Продолжительность : 1 ч. 49 м.
Битрейт : 814 Кбит/сек
Ширина : 688 пикс.
Высота : 288 пикс.
Соотношение сторон : 2,40:1
Частота кадров : 23,976 кадр/сек
Цветовое пространство : YUV
Подвыборка цветности : 4:2:0
Битовая глубина : 8 бит
Тип развёртки : Прогрессивная
Метод сжатия : С потерями
Бит/(Пиксели*Кадры) : 0.171
Размер потока : 638 Мбайт (86%)
Библиотека кодирования : XviD 1.2.1 (UTC 2008-12-04)

Аудио
Идентификатор : 1
Формат : MPEG Audio
Версия формата : Version 1
Профиль формата : Layer 3
Идентификатор кодека : 55
Идентификатор кодека/Подсказка : MP3
Продолжительность : 1 ч. 49 м.
Вид битрейта : Постоянный
Битрейт : 128 Кбит/сек
Каналы : 2 канала
Частота : 48,0 КГц
Метод сжатия : С потерями
Размер потока : 100 Мбайт (13%)
Выравнивание : Соединение по промежуткам
Продолжительность промежутка : 42 мс. (1,00 видеокадр)
Время предзагрузки промежутка : 504 ms
Библиотека кодирования : LAME3.99r
Залил: PetroV_Igor
Размер скачиваемого торрента: 745.29 MB (781492224 Bytes)


Джеймси / Jamesy Boy (2014) BDRip торрент скачать бесплатно
загрузка...
Рейтинг →
 (голосов: 1, оценка 3/5, голосовать можно 1 раз )

Другие торренты по теме:

  • Джеймси / Jamesy Boy (2014) WEB-DL 720p | L1
  • Джеймси / Jamesy Boy (2014) WEB-DLRip | L1
  • Джеймси / Jamesy Boy (2014) HDRip от MediaClub | L1
  • Джеймси / Jamesy Boy (2014) BDRemux 1080p от NovaLan
  • Джеймси / Jamesy Boy (2014) BDRip-AVC от Leonardo and Scarabey | L1 скачать через торрент бесплатно
  • Джеймси / Jamesy Boy (2014) BDRip 720p от CINEMANIA | L1


    • Комментарии (0):

      Информация

      Информация

        Посетители, находящиеся в группе Гости, не могут оставлять комментарии в данной новости.

        ↓ Меню



        ↓ Опрос

        А Вы добавили сайт в закладки?
        Да
        Не


        Top 10 за месяц (Фильмы)