.
Авторизация | Регистрация
Хочешь лучшие торренты? Добавь свой email!
Добавить
» » Дикость 2 / Дикие штучки 2 / Wild Things 2 (2004) DVDRip от ivandubskoj | P, P торрент скачать бесплатно




    Дикость 2 / Дикие штучки 2 / Wild Things 2 (2004) DVDRip от ivandubskoj | P, P торрент скачать бесплатно

    Опубликовал: Админ | Дата: 27-02-2015, 11:10 | Просмотров: 311



    Детально о кино
    Русское название: Дикость 2 (Дикие штучки 2)
    Русское название в мировом прокате: Wild Things 2
    Создали в: 2004
    Категория жанра: Триллер, криминал, драма, детектив, эротика
    Главный режиссёр: Джек Перес
    Актеры: Сьюзэн Уорд, Лейла Арсиери, Кэйти Стюарт, Бретт Гилберт, Майкл Чиффо, Линден Эшби, Джо Майкл Берк, Айзайя Вашингтон, Кимберли Аткинсон

    Сюжет фильма: 17-ти летняя школьница Бритни готовится вступить в права наследства после смерти своего отчима, но в последний момент происходит непредвиденное: ее одноклассница Майя внезапно предоставляет неопровержимые доказательства того, что законной наследницей является она! А речь идет о миллионах долларов! Столь неправдоподобный поворот событий привлекает внимание страховой компании, и та присылает следователя разобраться в этом странном деле. И точно, вскоре перед героем начинают проступать контуры гениального преступного сговора хитрых девиц. Вот только, поддавшись сексуальным чарам порочных юных аферисток, детектив вступает в игру по их правилам, чем ставит на карту не только свою карьеру, но и саму жизнь... У хорошей аферы всегда есть двойное дно. У гениальной - тройное!



    Снималось в: TriStar, США
    Время просмотра: 01:30:56
    Перевод текста: Профессиональный многоголосый, профессиональный многоголосый (Первый канал)
    Оригинальная аудио-дорожка: Английская

    Файл
    Качество фильма: DVDRip (Исходник: DVD-9)
    Информация о видео: XviD, 2031 Кбит/с, 704x384, 25 кадр/с
    Информация о звуке #1: Русский, Dolby АC3, 48000 Гц, 448 Кбит/с, 6 каналов (5.1) | MVO
    Информация о звуке #2: Русский, Dolby АC3, 48000 Гц, 192 Кбит/с, 2 канала (Стерео) | MVO, Первый канал
    Информация о звуке #3: Английский, Dolby АC3, 48000 Гц, 448 Кбит/с, 6 каналов (5.1) | Оригинал
    Субтитры: Отсутствуют



    Автор рипа - ivandubskoj

    MediaInfo

    Общее
    Полное имя : Dikost;.2.2004.Triple.DVDRip.avi
    Формат : AVI
    Формат/Информация : Audio Video Interleave
    Профиль формата : OpenDML
    Размер файла : 1,99 Гбайт
    Продолжительность : 1 ч. 30 м.
    Общий поток : 3137 Кбит/сек
    Название фильма : Дикость 2 (Дикие штучки 2) (2004) DVDRip
    Жанр : Триллер, криминал, драма, детектив, эротика
    Дата записи : 01.03.2014
    Программа кодирования : VirtualDubMod 1.5.10.3 (build 2550/release)
    Библиотека кодирования : VirtualDubMod build 2550/release
    Правообладатель : rip by ivandubskoj

    Видео
    Идентификатор : 0
    Формат : MPEG-4 Visual
    Профиль формата : Advanced Simple@L5
    Параметр BVOP формата : 2
    Параметр QPel формата : Нет
    Параметр GMC формата : Без точки перехода
    Параметр матрицы формата : Выборочная
    Идентификатор кодека : XVID
    Идентификатор кодека/Подсказка : XviD
    Продолжительность : 1 ч. 30 м.
    Битрейт : 2031 Кбит/сек
    Ширина : 704 пикселя
    Высота : 384 пикселя
    Соотношение сторон : 1,85:1
    Частота кадров : 25,000 кадров/сек
    Цветовое пространство : YUV
    Субдискретизация насыщенности : 4:2:0
    Битовая глубина : 8 бит
    Тип развёртки : Прогрессивная
    Метод сжатия : С потерями
    Бит/(Пиксели*Кадры) : 0.300
    Размер потока : 1,29 Гбайт (65%)
    Библиотека кодирования : XviD 73

    Аудио #1
    Идентификатор : 1
    Формат : AC-3
    Формат/Информация : Audio Coding 3
    Расширение режима : CM (complete main)
    Параметр Endianness формата : Big
    Идентификатор кодека : 2000
    Продолжительность : 1 ч. 30 м.
    Вид битрейта : Постоянный
    Битрейт : 448 Кбит/сек
    Каналы : 6 каналов
    Расположение каналов : Front: L C R, Side: L R, LFE
    Частота : 48,0 КГц
    Битовая глубина : 16 бит
    Метод сжатия : С потерями
    Размер потока : 291 Мбайт (14%)
    Выравнивание : Разделение по промежуткам
    Продолжительность промежутка : 64 мс. (1,60 видеокадра)
    Время предзагрузки промежутка : 500 мс.
    Заголовок : Russian (MVO)

    Аудио #2
    Идентификатор : 2
    Формат : AC-3
    Формат/Информация : Audio Coding 3
    Расширение режима : CM (complete main)
    Параметр Endianness формата : Big
    Идентификатор кодека : 2000
    Продолжительность : 1 ч. 30 м.
    Вид битрейта : Постоянный
    Битрейт : 192 Кбит/сек
    Каналы : 2 канала
    Расположение каналов : Front: L R
    Частота : 48,0 КГц
    Битовая глубина : 16 бит
    Метод сжатия : С потерями
    Размер потока : 125 Мбайт (6%)
    Выравнивание : Разделение по промежуткам
    Продолжительность промежутка : 64 мс. (1,60 видеокадра)
    Время предзагрузки промежутка : 500 мс.
    Заголовок : Russian (MVO, Первый канал)

    Аудио #3
    Идентификатор : 3
    Формат : AC-3
    Формат/Информация : Audio Coding 3
    Расширение режима : CM (complete main)
    Параметр Endianness формата : Big
    Идентификатор кодека : 2000
    Продолжительность : 1 ч. 30 м.
    Вид битрейта : Постоянный
    Битрейт : 448 Кбит/сек
    Каналы : 6 каналов
    Расположение каналов : Front: L C R, Side: L R, LFE
    Частота : 48,0 КГц
    Битовая глубина : 16 бит
    Метод сжатия : С потерями
    Размер потока : 291 Мбайт (14%)
    Выравнивание : Разделение по промежуткам
    Продолжительность промежутка : 64 мс. (1,60 видеокадра)
    Время предзагрузки промежутка : 500 мс.
    Заголовок : English (Original)
    Скриншоты для ознакомления



    Залил: ivandubskoj
    Размер скачиваемого торрента: 1.99 GB (2139285504 Bytes)

    Дикость 2 / Дикие штучки 2 / Wild Things 2 (2004) DVDRip от ivandubskoj | P, P торрент скачать бесплатно
    загрузка...
    Рейтинг →
     (голосов: 1, оценка 5/5, голосовать можно 1 раз )

    Другие торренты по теме:

  • Дикость 2 / Дикие штучки 2 / Wild Things 2 (2004) DVD9 | P
  • Дикость 2 / Wild Things 2 (2004) HDRip от Scarabey | P2


    • Комментарии (0):

      Информация

      Информация

        Посетители, находящиеся в группе Гости, не могут оставлять комментарии в данной новости.

        ↓ Меню



        ↓ Опрос

        А Вы добавили сайт в закладки?
        Да
        Не


        Top 10 за месяц (Фильмы)