.
Авторизация | Регистрация
Хочешь лучшие торренты? Добавь свой email!
Добавить
» » На крючке: Хорошо быть плохим (Мошенник: хорошо быть плохим) / Crook: Its Good to Be Bad (2010) DVDRip | P торрент скачать бесплатно




    На крючке: Хорошо быть плохим (Мошенник: хорошо быть плохим) / Crook: Its Good to Be Bad (2010) DVDRip | P торрент скачать бесплатно

    Опубликовал: Админ | Дата: 27-02-2015, 11:10 | Просмотров: 193

    На крючке: Хорошо быть плохим (Мошенник: хорошо быть плохим) / Crook: Its Good to Be Bad

    Русское название: На крючке: Хорошо быть плохим (Мошенник: хорошо быть плохим)
    Русское название в мировом прокате: Crook: Its Good to Be Bad
    Создали в: 2010
    Категория жанра: Боевик, триллер, драма


    Главный режиссер: Мохит Сури

    Актеры: Эмран Хашми, Неха Шарма, Арджан Баджва, Машхур Амрохи, Кавин Дэйв, Шелла Алан, Фрэнсис Чалер, Джеффри Тангрео Тсоутсос, Аман Хора, Джайдип Сури


    Сюжет фильма:
    Эта история о парне по имени Джей, который умеет попадать в неприятности. Сын гангстера, захотевшего порвать с преступным миром. Друг отца, Инспектор Джозеф, гарантировал безопасность и возможность начать новую и честную жизнь, как только он даст показания против своих боссов. Отец Джея выполнил обещание, но, несмотря на его признание, был подло обманут старшим офицером полиции. Героические усилия Джозефа спасти друга ни к чему не привели. Этот травмирующий инцидент оставил неизгладимое впечатление на Джея, для себя он сделал вывод, что не было никакого смысла в том, чтобы быть хорошим и что Хорошо быть Плохим.





    Снималось в: Индия, Films Casting Temple Pvt. Ltd. Sydney, Vishesh Films
    Время просмотра: 01:59:29
    Перевод текста: Профессиональный многоголосый (Red Media)


    Качество фильма: DVDRip
    Информация о видео: XviD, 1286 Кбит/с, 720x304
    Информация о звуке: AC3, 2 ch, 192 Кбит/с

    Релиз:


    Скриншоты для ознакомления



    MediaInfo
    Общее
    Полное имя : E:DownloadMoshennik.Horosho.byt.Plohim.2010.DVDRip.XviD.BwTorrents.1.24.Gib.avi
    Формат : AVI
    Формат/Информация : Audio Video Interleave
    Размер файла : 1,24 Гбайт
    Продолжительность : 1 ч. 59 м.
    Общий поток : 1487 Кбит/сек
    Название фильма : Moshennik.Horosho.byt.Plohim.2010.DVDRip.XviD.BwTorrents.1.37.Gib
    Режиссёр : -= BwTorrents.Ru =-
    Жанр : -= BwTorrents.Ru =-
    Программа кодирования : VirtualDubMod 1.5.10.3 | www.virtualdub-fr.org || (build 2550/release)
    Формат оригинала/Имя : -= BwTorrents.Ru =-
    Правообладатель : -= BwTorrents.Ru =-
    Примечание : -= BwTorrents.Ru =-

    Видео
    Идентификатор : 0
    Формат : MPEG-4 Visual
    Профиль формата : Advanced Simple@L5
    Параметр BVOP формата : 2
    Параметр QPel формата : Да
    Параметр GMC формата : Без точки перехода
    Параметр матрицы формата : Default (H.263)
    Идентификатор кодека : XVID
    Идентификатор кодека/Подсказка : XviD
    Продолжительность : 1 ч. 59 м.
    Битрейт : 1286 Кбит/сек
    Ширина : 720 пикселей
    Высота : 304 пикселя
    Соотношение сторон : 2,35:1
    Частота кадров : 23,976 кадра/сек
    Цветовое пространство : YUV
    Субдискретизация насыщенности : 4:2:0
    Битовая глубина : 8 бит
    Тип развёртки : Прогрессивная
    Метод сжатия : С потерями
    Бит/(Пиксели*Кадры) : 0.245
    Размер потока : 1,07 Гбайт (86%)
    Библиотека кодирования : XviD 1.2.1 (UTC 2008-12-04)

    Аудио
    Идентификатор : 1
    Формат : AC-3
    Формат/Информация : Audio Coding 3
    Расширение режима : CM (complete main)
    Параметр Endianness формата : Big
    Идентификатор кодека : 2000
    Продолжительность : 1 ч. 59 м.
    Вид битрейта : Постоянный
    Битрейт : 192 Кбит/сек
    Каналы : 2 канала
    Расположение каналов : Front: L R
    Частота : 48,0 КГц
    Битовая глубина : 16 бит
    Метод сжатия : С потерями
    Размер потока : 164 Мбайт (13%)
    Выравнивание : Разделение по промежуткам
    Продолжительность промежутка : 42 мс. (1,00 видеокадр)
    Время предзагрузки промежутка : 500 мс.

    Размер скачиваемого торрента: 1.24 GB (1333010432 Bytes)

    На крючке: Хорошо быть плохим (Мошенник: хорошо быть плохим) / Crook: Its Good to Be Bad (2010) DVDRip | P торрент скачать бесплатно
    загрузка...
    Рейтинг →
     (голосов: 1, оценка 3/5, голосовать можно 1 раз )

    Другие торренты по теме:

  • На крючке / Eagle eye (2008) BDRip-AVC от ExKinoRay
  • На крючке / Eagle Eye (2008) BDRemux 1080p от NovaLan скачать через торрент бесплатно
  • На Крючке / Eagle Eye (2008) BDRip 720p | дополнительные материалы
  • На крючке / Eagle Eye (2008) HDRip от Scarabey | D


    • Комментарии (0):

      Информация

      Информация

        Посетители, находящиеся в группе Гости, не могут оставлять комментарии в данной новости.

        ↓ Меню



        ↓ Опрос

        А Вы добавили сайт в закладки?
        Да
        Не


        Top 10 за месяц (Фильмы)