.
Авторизация | Регистрация
Хочешь лучшие торренты? Добавь свой email!
Добавить
» » Знамение Судного дня / Двенадцать бедствий на Рождество / The 12 Disasters of Christmas (2012) BDRip-AVC | Лицензия торрент скачать бесплатно




    Знамение Судного дня / Двенадцать бедствий на Рождество / The 12 Disasters of Christmas (2012) BDRip-AVC | Лицензия торрент скачать бесплатно

    Опубликовал: Админ | Дата: 27-02-2015, 11:10 | Просмотров: 296



    Детально о кино
    Русское название: Знамение Судного дня / Двенадцать бедствий на Рождество
    Русское название в мировом прокате: The 12 Disasters of Christmas
    Создали в: 2012
    Категория жанра: Фантастика
    Главный режиссер: Стивен Р. Монро
    Актеры: Эд Куинн, Магда Апанович, Холли Элисса, Райан Грантхэм, Кай-Эрик Эриксен, Роарк Критчлоу, Эндрю Эйрлай, Грег Кин, Доннелли Роудс, Бренна О;Брайен

    Сюжет фильма:
    Вскоре на планете могут произойти катастрофические изменения, которые станут началом конца и ознаменуют окончание человеческой истории. Рождественская звезда, таинственно появившаяся на небе, становится основным фактом в пользу этой гипотезы. Единственной, кто может предотвратить вселенскую катастрофу и спасти человечество от ужасного уничтожения, становится юная девушка Джейси. Но сможет ли эта хрупкая героиня одна противостоять могущественной силе и предотвратить опасность, против которой бессильно все человечество?



    Снималось в: Канада
    Киностудия: Golden Ring Productions
    Время просмотра: 01:29:47
    Перевод текста: Профессиональное (многоголосое) Лицензия

    Файл
    Кодек для видео: h.264, AVC
    Качество фильма: BDRip-AVC
    Информация о видео: AVC, 1024 x 576, ~1850 kbps
    Информация о звуке #1: Русский: AC-3, 6 ch, 448 kbps
    Информация о звуке #2: Английский: AC-3, 6 ch, 448 kbps
    Субтитры: Русский R5

    Семпл

    Скриншоты для ознакомления
    MI
    Общее
    Уникальный идентификатор : 168348648403719580577546155723716462494 (0x7EA6C532C2870C1E037BA147C20E879E)
    Полное имя : G:Знамение Судного дня Двенадцать бедствий на Рождество The 12 Disasters of Christmas (2012) BDRip-AVCThe.12.Disasters.Of.Christmas.2012.BDRip-AVC..mkv
    Формат : Matroska
    Версия формата : Version 2
    Размер файла : 1,76 Гбайт
    Продолжительность : 1 ч. 29 м.
    Режим общего битрейта : Переменный
    Общий поток : 2802 Кбит/сек
    Программа кодирования : Lavf51.12.1
    Библиотека кодирования : Lavf51.12.1

    Видео
    Идентификатор : 1
    Формат : AVC
    Формат/Информация : Advanced Video Codec
    Профиль формата : Baseline@L3.1
    Параметр CABAC формата : Нет
    Параметр ReFrames формата : 1 кадр
    Параметр GOP формата : M=1, N=12
    Идентификатор кодека : V_MPEG4/ISO/AVC
    Продолжительность : 1 ч. 29 м.
    Вид битрейта : Переменный
    Битрейт : 1850 Кбит/сек
    Максимальный битрейт : 2850 Кбит/сек
    Ширина : 1024 пикселя
    Высота : 576 пикселей
    Соотношение сторон : 16:9
    Режим частоты кадров : Постоянный
    Частота кадров : 23,976 кадра/сек
    Частота кадров в оригинале : 24,000 кадра/сек
    Цветовое пространство : YUV
    Субдискретизация насыщенности : 4:2:0
    Битовая глубина : 8 бит
    Тип развёртки : Прогрессивная
    Бит/(Пиксели*Кадры) : 0.131
    Размер потока : 1,16 Гбайт (66%)
    Default : Да
    Forced : Нет

    Аудио #1
    Идентификатор : 2
    Формат : AC-3
    Формат/Информация : Audio Coding 3
    Расширение режима : CM (complete main)
    Параметр Endianness формата : Big
    Идентификатор кодека : A_AC3
    Продолжительность : 1 ч. 29 м.
    Вид битрейта : Постоянный
    Битрейт : 448 Кбит/сек
    Каналы : 6 каналов
    Расположение каналов : Front: L C R, Side: L R, LFE
    Частота : 48,0 КГц
    Битовая глубина : 16 бит
    Метод сжатия : С потерями
    Размер потока : 288 Мбайт (16%)
    Язык : Russian
    Default : Да
    Forced : Нет

    Аудио #2
    Идентификатор : 4
    Формат : AC-3
    Формат/Информация : Audio Coding 3
    Расширение режима : CM (complete main)
    Параметр Endianness формата : Big
    Идентификатор кодека : A_AC3
    Продолжительность : 1 ч. 29 м.
    Вид битрейта : Постоянный
    Битрейт : 448 Кбит/сек
    Каналы : 6 каналов
    Расположение каналов : Front: L C R, Side: L R, LFE
    Частота : 48,0 КГц
    Битовая глубина : 16 бит
    Метод сжатия : С потерями
    Размер потока : 288 Мбайт (16%)
    Язык : English
    Default : Да
    Forced : Нет

    Текст
    Идентификатор : 3
    Формат : UTF-8
    Идентификатор кодека : S_TEXT/UTF8
    Идентификатор кодека/Информация : UTF-8 Plain Text
    Язык : Russian
    Default : Да
    Forced : Нет /spoler

    Размер скачиваемого торрента: 1.76 GB (1887144355 Bytes)

    Знамение Судного дня / Двенадцать бедствий на Рождество / The 12 Disasters of Christmas (2012) BDRip-AVC | Лицензия торрент скачать бесплатно
    загрузка...
    Рейтинг →
     (голосов: 1, оценка 4/5, голосовать можно 1 раз )

    Другие торренты по теме:

  • Знамение Судного дня / Двенадцать бедствий на Рождество / The 12 Disasters of Christmas (2012) BDRip 1080p от CINEMANIA | P
  • Знамение Судного дня / Двенадцать бедствий на Рождество / The 12 Disasters of Christmas (2012) BDRip 720p от CINEMANIA | P


    • Комментарии (0):

      Информация

      Информация

        Посетители, находящиеся в группе Гости, не могут оставлять комментарии в данной новости.

        ↓ Меню



        ↓ Опрос

        А Вы добавили сайт в закладки?
        Да
        Не


        Top 10 за месяц (Фильмы)