.
Авторизация | Регистрация
Хочешь лучшие торренты? Добавь свой email!
Добавить
» » Я, снова я и мама / Les garзons et Guillaume, а table! (2013) BDRip-AVC | iPhone | P торрент скачать бесплатно




    Я, снова я и мама / Les garзons et Guillaume, а table! (2013) BDRip-AVC | iPhone | P торрент скачать бесплатно

    Опубликовал: Админ | Дата: 27-02-2015, 11:10 | Просмотров: 237



    Я, снова я и мама / Les garзons et Guillaume, а table! (2013) BDRip-AVC | iPhone | P

    Русское название: Я, снова я и мама
    Русское название в мировом прокате: Les garзons et Guillaume, а table!
    Создали в: 2013
    Категория жанра: комедия
    Главный режиссер: Гийом Гальенн
    Актеры: Гийом Гальенн, Андре Маркон, Франсуаза Фабиан, Нану Гарсия, Дайан Крюгер, Реда Катеб, Гёц Отто, Бриджитт Катийон, Кэрол Бреннер, Чарли Энсон

    Сюжет фильма:
    Гийом настолько боготворит свою мамочку, что всячески подражает ее манерам и поведению. Странные интересы, необъяснимые действия заставляют окружающих думать, что все не так просто в жизни молодого человека.




    Снималось в: Франция, Бельгия
    Киностудия: Canal fr, Cin?, Cin?mage 7, Don;t Be Shy, France 3 Cin?ma, France T?l?visions, Gaumont, La Banque Postale Image 6, Le Tax Shelter du Gouvernement F?d?ral de Belgique, LGM Productions, Nexus Factory, Rectangle Productions, uFilm, uFun
    Время просмотра: 01:26:32
    Перевод текста: Русский профессиональный многоголосый закадровый


    Файл
    Кодек для видео: H.264
    Качество фильма: BDRip-AVC 480p | iPhone
    Информация о видео: 640x356@852x356 (2.40:1) at 24.000 fps, AVC at 1700 kbps
    Информация о звуке:
    1: ААС 2.0 132 kbps - Французский
    2: ААС 2.0 138 kbps - Русский профессиональный многоголосый закадровый
    Субтитры: Отсутствуют

    MI

    General
    Complete name : C:CREATE480outMe Myself and Mom.2013 (SD).m4v
    Format : MPEG-4
    Codec ID : M4V
    File size : 1.20 GiB
    Duration : 1h 26mn
    Overall bit rate mode : Variable
    Overall bit rate : 1 977 Kbps
    Movie name : Я, снова я и мама
    Performer : Guillaume Gallienne
    Genre : Comedy
    Recorded date : UTC 2013-11-20 08:00:00
    Encoded date : UTC 2014-03-01 09:08:54
    Tagged date : UTC 2014-03-01 14:41:33
    Copyright : Canal fr, Cin?, Cin?mage 7, Don;t Be Shy Productions, France 3 Cin?ma
    Cover : Yes
    Comment : Les gar?ons et Guillaume, ? table!
    sonm : Les gar?ons et Guillaume, ? table!
    desc : Гийом настолько боготворит свою мамочку, что всячески подражает ее манерам и поведению. Странные интересы, необъяснимые действия заставляют окружающих думать, что все не так просто в жизни молодого человека.
    ldes : Гийом настолько боготворит свою мамочку, что всячески подражает ее манерам и поведению. Странные интересы, необъяснимые действия заставляют окружающих думать, что все не так просто в жизни молодого человека.
    stik : 9
    rtng : 0
    cnID : 809815041
    xid : Apple:vendor_id:2013-698881
    iTunEXTC : fr-movie|-16|375|

    Video #1
    ID : 1
    Format : AVC
    Format/Info : Advanced Video Codec
    Format profile : Baseline@L3.0
    Format settings, CABAC : No
    Format settings, ReFrames : 2 frames
    Codec ID : avc1
    Codec ID/Info : Advanced Video Coding
    Duration : 1h 26mn
    Bit rate : 1 700 Kbps
    Maximum bit rate : 6 524 Kbps
    Width : 640 pixels
    Height : 356 pixels
    Display aspect ratio : 2.40:1
    Frame rate mode : Constant
    Frame rate : 24.000 fps
    Color space : YUV
    Chroma subsampling : 4:2:0
    Bit depth : 8 bits
    Scan type : Progressive
    Bits/(Pixel*Frame) : 0.311
    Stream size : 1.03 GiB (86%)
    Title : Me Myself and Mom _2013_
    Writing library : x264 core 140 r2377 40 929f149 tMod 8-bit@4:2:0 X86_64
    Encoding settings : cabac=0 / ref=2 / deblock=1:-2:-2 / analyse=0x1:0x131 / me=umh / subme=7 / psy=1 / fade_compensate=1.00 / psy_rd=1.00:0.15 / mixed_ref=1 / me_range=32 / chroma_me=1 / trellis=2 / 8x8dct=0 / cqm=0 / deadzone=21,11 / fast_pskip=0 / chroma_qp_offset=-3 / threads=12 / lookahead_threads=2 / sliced_threads=0 / nr=0 / decimate=0 / interlaced=0 / bluray_compat=0 / constrained_intra=0 / fgo=0 / bframes=0 / weightp=0 / keyint=250 / keyint_min=23 / scenecut=40 / intra_refresh=0 / rc_lookahead=80 / rc=2pass / mbtree=1 / bitrate=1700 / ratetol=1.0 / qcomp=0.60 / qpmin=0:0:0 / qpmax=69:69:69 / qpstep=4 / cplxblur=20.0 / qblur=0.5 / vbv_maxrate=5000 / vbv_bufsize=5000 / nal_hrd=none / filler=0 / ip_ratio=1.35 / aq=4:0.90 / aq-sensitivity=10.00 / aq-factor=1.00:1.00:1.00 / aq2=0 / aq3=0
    Language : French
    Encoded date : UTC 2014-03-01 09:08:54
    Tagged date : UTC 2014-03-01 09:09:30
    Matrix coefficients : BT.709

    Video #2
    ID : 5
    Format : JPEG
    Codec ID : jpeg
    Duration : 1h 26mn
    Bit rate mode : Variable
    Bit rate : 558 bps
    Width : 640 pixels
    Height : 267 pixels
    Display aspect ratio : 2.40:1
    Frame rate mode : Variable
    Frame rate : 0.002 fps
    Minimum frame rate : 0.002 fps
    Maximum frame rate : 0.003 fps
    Color space : YUV
    Chroma subsampling : 4:2:0
    Bit depth : 8 bits
    Compression mode : Lossy
    Bits/(Pixel*Frame) : 1.633
    Stream size : 409 KiB (0%)
    Language : French
    Encoded date : UTC 2014-03-01 14:37:27
    Tagged date : UTC 2014-03-01 14:37:27

    Audio #1
    ID : 2
    Format : AAC
    Format/Info : Advanced Audio Codec
    Format profile : LC
    Codec ID : 40
    Duration : 1h 26mn
    Bit rate mode : Variable
    Bit rate : 132 Kbps
    Maximum bit rate : 176 Kbps
    Channel(s) : 2 channels
    Channel positions : Front: L R
    Sampling rate : 48.0 KHz
    Compression mode : Lossy
    Stream size : 83.0 MiB (7%)
    Title : MVO
    Language : French
    Encoded date : UTC 2014-03-01 08:55:21
    Tagged date : UTC 2014-03-01 09:09:30

    Audio #2
    ID : 3
    Format : AAC
    Format/Info : Advanced Audio Codec
    Format profile : LC
    Codec ID : 40
    Duration : 1h 26mn
    Bit rate mode : Variable
    Bit rate : 138 Kbps
    Maximum bit rate : 178 Kbps
    Channel(s) : 2 channels
    Channel positions : Front: L R
    Sampling rate : 48.0 KHz
    Compression mode : Lossy
    Stream size : 85.5 MiB (7%)
    Title : Original
    Language : Russian
    Encoded date : UTC 2014-03-01 09:05:24
    Tagged date : UTC 2014-03-01 09:09:30

    Menu
    ID : 4
    Codec ID : text
    Duration : 1h 26mn
    Language : French
    Encoded date : UTC 2014-03-01 09:10:58
    Tagged date : UTC 2014-03-01 09:10:58
    Bit rate mode : CBR
    iTunes Meta Tags

    Sort Name: Les gar?ons et Guillaume, ? table!
    XID: Apple:vendor_id:2013-698881
    contentID: 809815041
    Copyright: Canal fr, Cin?, Cin?mage 7, Don;t Be Shy Productions, France 3 Cin?ma
    Screenwriters: Гийом Гальенн
    Producers: Сирил Кольбо-Жюстен, Жан-Батист Дюпон, Алис Жирар
    Director: Гийом Гальенн
    Cast: Гийом Гальенн, Андре Маркон, Франсуаза Фабиан, Нану Гарсия, Дайан Крюгер, Реда Катеб, Гёц Отто, Бриджитт Катийон, Кэрол Бреннер, Чарли Энсон
    Studio: Canal fr, Cin?, Cin?mage 7, Don;t Be Shy Productions, France 3 Cin?ma
    Rating: 63
    Long Deion: Гийом настолько боготворит свою мамочку, что всячески подражает ее манерам и поведению. Странные интересы, необъяснимые действия заставляют окружающих думать, что все не так просто в жизни молодого человека.
    Deion: Гийом настолько боготворит свою мамочку, что всячески подражает ее манерам и поведению. Странные интересы, необъяснимые действия заставляют окружающих думать, что все не так просто в жизни молодого человека.
    Release Date: 2013-11-20T08:00:00Z
    Genre: Comedy
    Comments: Les gar?ons et Guillaume, ? table!
    Artist: Guillaume Gallienne
    Name: Я, снова я и мама

    x264

    x264 info: frame I:1466 Avg QP:17.18 size: 29048
    x264 info: frame P:123162 Avg QP:19.61 size: 8611
    x264 info: mb I I16..4: 35.1% 0.0% 64.9%
    x264 info: mb P I16..4: 1.5% 0.0% 2.0% P16..4: 47.8% 14.8% 8.5% 1.9% 0.9% skip:22.6%
    x264 info: coded y,uvDC,uvAC intra: 53.4% 69.0% 46.8% inter: 36.9% 33.3% 21.2%
    x264 info: i16 v,h,dc,p: 56% 13% 7% 24%
    x264 info: i4 v,h,dc,ddl,ddr,vr,hd,vl,hu: 42% 13% 11% 5% 6% 8% 5% 6% 4%
    x264 info: i8c dc,h,v,p: 51% 14% 28% 7%
    x264 info: ref P L0: 77.1% 22.9%
    x264 info: kb/s:1699.55




    Залил: gekka
    Размер скачиваемого торрента: 1.20 GB (1283370318 Bytes)

    Я, снова я и мама / Les garзons et Guillaume, а table! (2013) BDRip-AVC | iPhone | P торрент скачать бесплатно
    загрузка...
    Рейтинг →
     (голосов: 1, оценка 5/5, голосовать можно 1 раз )

    Другие торренты по теме:

  • Я, снова я и мама / Les garcons et Guillaume, a table! (2013) WEBRip | Чистый звук скачать через торрент бесплатно
  • Я, снова я и мама / Les garcons et Guillaume, a table! (2013) HDRip | Лицензия
  • Я, снова я и мама / Les garcons et Guillaume, a table! (2013) BDRip-AVC от MediaClub | Лицензия скачать через торрент бесплатно
  • Я, снова я и мама / Les garcons et Guillaume, a table! (2013) HDRip от -=HD-NET=- |КПК| Лицензия скачать через торрент бесплатно
  • Я, снова я и мама / Les garons et Guillaume, table! (2013) HDRip от Sanjar NeoJet | КПК | Лицензия
  • Я, снова я и мама / Les garcons et Guillaume, a table / Me, Myself and Mum (2013) BDRip 1080p от CINEMANIA | P
  • Я, снова я и мама / Les garcons et Guillaume, a table / Me, Myself and Mum (2013) BDRip 720p от CINEMANIA | P
  • Я, снова я и мама / Les garcons et Guillaume, a table! (2013) BDRip 720p от Leonardo and Scarabey | Лицензия скачать через торрент бесплатно


    • Комментарии (0):

      Информация

      Информация

        Посетители, находящиеся в группе Гости, не могут оставлять комментарии в данной новости.

        ↓ Меню



        ↓ Опрос

        А Вы добавили сайт в закладки?
        Да
        Не


        Top 10 за месяц (Фильмы)