.
Авторизация | Регистрация
» » Суперзвезда / Топовая звезда / Top Star / Tobseuta (2013) HDTV 720p от CINEMANIA | L2 торрент скачать бесплатно




    Суперзвезда / Топовая звезда / Top Star / Tobseuta (2013) HDTV 720p от CINEMANIA | L2 торрент скачать бесплатно

    Опубликовал: Админ | Дата: 27-02-2015, 11:10 | Просмотров: 206



    Детально о кино
    Русское название: Суперзвезда / Топовая звезда
    Русское название в мировом прокате: Top Star / Tobseuta
    Создали в: 2013
    Категория жанра: драма
    Главный режиссер: Пак Чжун Хун
    Актеры: Еом Тхэ Ун, Ким Мин Чжун, Со И Хён, Ким Су Ро, Ан Сон Ги, О Сон Су

    Сюжет фильма:
    Молодой парень Тэ-Сик работает менеджером у знаменитого актера Вон Джуна. На самом деле, Тэ-Сик отчаянно завидует своему подопечному, поскольку сам хотел бы сниматься в кино. Когда Вон Джун случайно сбивает мотоциклиста, а затем скрывается с места аварии, перед Тэ-Сиком открываются возможности начать актерскую карьеру, и он готов сделать всё, чтобы воспользоваться этим шансом. Но ситуация крайне осложняется теми чувствами, которые он питает к очаровательной Ми-Не, работающей кинопродюсером, не подозревая, что девушка тайно встречается с Вон Джуном...



    Снималось в: Корея Южная
    Время просмотра: 01:54:22
    Тип перевода: Любительское (двухголосое) den904 DeadSno

    Файл
    Тип видео: AVI
    Качество фильма: HDTV 720p PREDAiLY
    Информация о видео: 3072 kb/s, 1280х720
    Информация о звуке: Russian / Korean: AC3, 192 kb/s (2 ch)
    Субтитры: Russian ФСГ Shadows, English
    Размер скачиваемого торрента: 2.84 GB
    Скачать: Сэмпл

    Релиз группы:



    NFO
    Общее
    Top.Star.2013.HDTV.720p.CINEMANIA.mkv
    Формат : Matroska
    Версия формата : Version 4 / Version 2
    Размер файла : 2,84 Гбайт
    Продолжительность : 1 ч. 54 м.
    Общий поток : 3560 Кбит/сек
    Название фильма : Release Group CINEMANIA
    Дата кодирования : UTC 2014-03-01 14:13:38
    Программа кодирования : mkvmerge v6.7.0 (;Back to the Ground;) 64bit built on Jan 8 2014 15:10:52
    Библиотека кодирования : libebml v1.3.0 libmatroska v1.4.1

    Видео
    Идентификатор : 1
    Формат : AVC
    Формат/Информация : Advanced Video Codec
    Профиль формата : Baseline@L3.1
    Параметр CABAC формата : Нет
    Параметр ReFrames формата : 2 кадра
    Идентификатор кодека : V_MPEG4/ISO/AVC
    Продолжительность : 1 ч. 54 м.
    Вид битрейта : Постоянный
    Битрейт : 3072 Кбит/сек
    Ширина : 1280 пикселей
    Высота : 720 пикселей
    Соотношение сторон : 16:9
    Режим частоты кадров : Постоянный
    Частота кадров : 29,970 кадров/сек
    Частота кадров в оригинале : 29,000 кадров/сек
    Цветовое пространство : YUV
    Субдискретизация насыщенности : 4:2:0
    Битовая глубина : 8 бит
    Тип развёртки : Прогрессивная
    Бит/(Пиксели*Кадры) : 0.111
    Размер потока : 2,48 Гбайт (87%)
    Заголовок : Release Group CINEMANIA
    Default : Да
    Forced : Нет

    Аудио #1
    Идентификатор : 2
    Формат : AC-3
    Формат/Информация : Audio Coding 3
    Расширение режима : CM (complete main)
    Параметр Endianness формата : Big
    Идентификатор кодека : A_AC3
    Продолжительность : 1 ч. 54 м.
    Вид битрейта : Постоянный
    Битрейт : 192 Кбит/сек
    Каналы : 2 канала
    Расположение каналов : Front: L R
    Частота : 48,0 КГц
    Битовая глубина : 16 бит
    Метод сжатия : С потерями
    Размер потока : 157 Мбайт (5%)
    Заголовок : Влад и Снежинка
    Язык : Russian
    Default : Да
    Forced : Да

    Аудио #2
    Идентификатор : 3
    Формат : AC-3
    Формат/Информация : Audio Coding 3
    Расширение режима : CM (complete main)
    Параметр Endianness формата : Big
    Идентификатор кодека : A_AC3
    Продолжительность : 1 ч. 54 м.
    Вид битрейта : Постоянный
    Битрейт : 192 Кбит/сек
    Каналы : 2 канала
    Частота : 48,0 КГц
    Метод сжатия : С потерями
    Размер потока : 157 Мбайт (5%)
    Библиотека кодирования : LAME3.99.5
    Язык : Korean
    Default : Нет
    Forced : Нет

    Текст #1
    Идентификатор : 4
    Формат : UTF-8
    Идентификатор кодека : S_TEXT/UTF8
    Идентификатор кодека/Информация : UTF-8 Plain Text
    Заголовок : ФСГ Shadows
    Язык : Russian
    Default : Нет
    Forced : Нет

    Текст #2
    Идентификатор : 5
    Формат : UTF-8
    Идентификатор кодека : S_TEXT/UTF8
    Идентификатор кодека/Информация : UTF-8 Plain Text
    Язык : English
    Default : Нет
    Forced : Нет

    Залил: DGEKIGAN
    Размер скачиваемого торрента: 2.84 GB (3053458844 Bytes)

    Суперзвезда / Топовая звезда / Top Star / Tobseuta (2013) HDTV 720p от CINEMANIA | L2 торрент скачать бесплатно
    загрузка...
    Рейтинг →
     (голосов: 1, оценка 4/5, голосовать можно 1 раз )

    Другие торренты по теме:



      Комментарии (0):

      Информация

      Информация

        Посетители, находящиеся в группе Гости, не могут оставлять комментарии в данной новости.

        ↓ Меню



        ↓ Опрос

        А Вы добавили сайт в закладки?
        Да
        Не


        Top 10 за неделю (Фильмы)