.
Авторизация | Регистрация
» » Афера по-американски / American Hustle (2013) BDRip-AVC | Звук с TS торрент скачать бесплатно




    Афера по-американски / American Hustle (2013) BDRip-AVC | Звук с TS торрент скачать бесплатно

    Опубликовал: Админ | Дата: 27-02-2015, 11:10 | Просмотров: 256



    Детально о кино
    Русское название: Афера по-американски
    Русское название в мировом прокате: American Hustle
    Создали в: 2013
    Категория жанра: Драма, комедия
    Главный режиссер: Дэвид О. Расселл
    Актеры: Кристиан Бэйл, Брэдли Купер, Эми Адамс, Джереми Реннер, Дженнифер Лоуренс, Луис С.К., Джек Хьюстон, Майкл Пенья, Ши Уигхэм, Алессандро Нивола

    Сюжет фильма: Работай локтями, чтобы выжить
    В основе сюжета фильма реальная спецоперация, проводимая в конце 70-х — начале 80-х ФБР под кодовым названием Abscam. Она изначально была нацелена на расследование торговли краденым товаром. ФБР собиралось внедрить в преступную среду своих агентов под видом посредников, скупающих краденые шедевры для богатых коллекционеров Ближнего Востока. Впоследствии операция превратилась в изобличение коррупции на разных уровнях.



    Снималось в: США
    Киностудия: Annapurna Pictures, Atlas Entertainment
    Время просмотра: 02:18:14
    Перевод текста: Дублированный Информация о звуке с TS

    Файл
    Кодек для видео: h.264
    Качество фильма: BDRip-AVC
    Информация о видео: AVC, 1024 x 432, ~1856 kbps
    Информация о звуке #1: Русский: MP3, 2 ch, 128 kbps
    Информация о звуке #2: Aнглийский: AC-3, 6 ch, 448 kbps
    Субтитры: Английские

    Семпл

    Скриншоты для ознакомления
    MI
    Общее
    Уникальный идентификатор : 168348648403719580577546155723716462494 (0x7EA6C532C2870C1E037BA147C20E879E)
    Полное имя : G:Афера по-американски American Hustle (2013) BDRip-AVCAmerican.Hustle.2013.Dt.BDRip- AVC..mkv
    Формат : Matroska
    Версия формата : Version 2
    Размер файла : 2,39 Гбайт
    Продолжительность : 2 ч. 18 м.
    Режим общего битрейта : Переменный
    Общий поток : 2481 Кбит/сек
    Программа кодирования : Lavf51.12.1
    Библиотека кодирования : Lavf51.12.1

    Видео
    Идентификатор : 1
    Формат : AVC
    Формат/Информация : Advanced Video Codec
    Профиль формата : Baseline@L3.1
    Параметр CABAC формата : Нет
    Параметр ReFrames формата : 1 кадр
    Параметр GOP формата : M=1, N=12
    Идентификатор кодека : V_MPEG4/ISO/AVC
    Продолжительность : 2 ч. 18 м.
    Вид битрейта : Переменный
    Битрейт : 1856 Кбит/сек
    Максимальный битрейт : 2850 Кбит/сек
    Ширина : 1024 пикселя
    Высота : 432 пикселя
    Соотношение сторон : 2,40:1
    Режим частоты кадров : Постоянный
    Частота кадров : 23,976 кадра/сек
    Частота кадров в оригинале : 24,000 кадра/сек
    Цветовое пространство : YUV
    Субдискретизация насыщенности : 4:2:0
    Битовая глубина : 8 бит
    Тип развёртки : Прогрессивная
    Бит/(Пиксели*Кадры) : 0.175
    Размер потока : 1,79 Гбайт (75%)
    Язык : English
    Default : Да
    Forced : Нет

    Аудио #1
    Идентификатор : 2
    Формат : MPEG Audio
    Версия формата : Version 1
    Профиль формата : Layer 3
    Режим : Joint stereo
    Идентификатор кодека : A_MPEG/L3
    Идентификатор кодека/Подсказка : MP3
    Продолжительность : 2 ч. 18 м.
    Вид битрейта : Постоянный
    Битрейт : 128 Кбит/сек
    Каналы : 2 канала
    Частота : 44,1 КГц
    Метод сжатия : С потерями
    Размер потока : 126 Мбайт (5%)
    Библиотека кодирования : LAME3.97
    Язык : Russian
    Default : Да
    Forced : Нет

    Аудио #2
    Идентификатор : 4
    Формат : AC-3
    Формат/Информация : Audio Coding 3
    Расширение режима : CM (complete main)
    Параметр Endianness формата : Big
    Идентификатор кодека : A_AC3
    Продолжительность : 2 ч. 18 м.
    Вид битрейта : Постоянный
    Битрейт : 448 Кбит/сек
    Каналы : 6 каналов
    Расположение каналов : Front: L C R, Side: L R, LFE
    Частота : 48,0 КГц
    Битовая глубина : 16 бит
    Метод сжатия : С потерями
    Размер потока : 442 Мбайт (18%)
    Язык : English
    Default : Да
    Forced : Нет

    Текст
    Идентификатор : 3
    Формат : UTF-8
    Идентификатор кодека : S_TEXT/UTF8
    Идентификатор кодека/Информация : UTF-8 Plain Text
    Язык : English
    Default : Да
    Forced : Нет

    Размер скачиваемого торрента: 2.39 GB (2569664014 Bytes)

    Афера по-американски / American Hustle (2013) BDRip-AVC | Звук с TS торрент скачать бесплатно
    загрузка...
    Рейтинг →
     (голосов: 1, оценка 3/5, голосовать можно 1 раз )

    Другие торренты по теме:

  • Суета по - американски / Афера по - американски / American Hustle (2013) DVDScr скачать через торрент бесплатно
  • Афера по-американски / Суета По-Американски / American Hustle (2013) BDRip 720p | L1 торрент скачать бесплатно
  • Афера по-американски / Суета По-Американски / American Hustle (2013) BDRip 1080p от GORESEWAGE | LM, L1 скачать через торрент бесплатно
  • Афера по-американски / Суета По-Американски / American Hustle (2013) BDRip-AVC от R.G.TorrBy | Чистый звук скачать через торрент бесплатно
  • Афера по-американски / Суета По-Американски / American Hustle (2013) BDRip-AVC от R.G.TorrBy | Лицензия торрент скачать бесплатно
  • Афера по-американски (2014) скачать через торрент бесплатно
  • Афера по-американски / American Hustle (2013) DVDScr | L скачать через торрент бесплатно
  • Афера по-американски / American Hustle (2013) DVDScr от Один 777 | L скачать через торрент бесплатно


    • Комментарии (0):

      Информация

      Информация

        Посетители, находящиеся в группе Гости, не могут оставлять комментарии в данной новости.

        ↓ Меню



        ↓ Опрос

        А Вы добавили сайт в закладки?
        Да
        Не


        Top 10 за неделю (Фильмы)