.
Авторизация | Регистрация
» » Аттила / Attila - Master of an Empire (2013) BDRip 720p от CINEMANIA | L1 торрент скачать бесплатно




    Аттила / Attila - Master of an Empire (2013) BDRip 720p от CINEMANIA | L1 торрент скачать бесплатно

    Опубликовал: Админ | Дата: 27-02-2015, 11:10 | Просмотров: 192



    Детально о кино
    Русское название: Аттила
    Русское название в мировом прокате: Attila
    Создали в: 2013
    Категория жанра: ужасы, боевик
    Главный режиссер: Эммануэль Итье
    Актеры: Крис Конрад, Люк Барнетт, Пончо Ходжес, М. Стивен Фелти, Стив Хэнкс, Дэнни Лигсей, Микаяла Кэмбелл, Филипп Андре Ботельо, Роксанна Бина, Билл Вурис

    Сюжет фильма:
    Спустя полторы тысячи лет после гибели Аттилы – знаменитого своей жестокостью предводителя гуннов, элитный военный спецотряд обнаруживает его гробницу. Совершенно случайно став похитителями древней реликвии, солдаты пробуждают мстительный дух Аттилы к жизни, и теперь тот не остановится ни перед чем, чтобы покарать злоумышленников. Теперь сеющий хаос и разрушения, древний воин, обладающий магической силой, вступает в бой с профессиональными наемниками, оснащенными по последнему слову техни



    Снималось в: США
    Время просмотра: 01:25:37
    Тип перевода: Любительское (одноголосое) den904
    перевод на русский язык kon2011

    Файл
    Тип видео: MKV
    Качество фильма: BDRip 720p PHD
    Информация о видео: 4872 kb/s, 1280x720
    Информация о звуке: Russian: AC3, 192 kb/s (2 ch) / English / German: DTS, 1510 kb/s (6 ch)
    Субтитры: English
    Дополнительно: Сохранены оригинальные чаптеры как на Blu-Ray
    Размер скачиваемого торрента: 4.01 GB
    Скачать: Сэмпл

    Релиз группы:




    NFO
    Общее
    Attila.2013.Blu.Ray.720p.CINEMANIA.mkv
    Формат : Matroska
    Версия формата : Version 4 / Version 2
    Размер файла : 4,01 Гбайт
    Продолжительность : 1 ч. 25 м.
    Общий поток : 6707 Кбит/сек
    Название фильма : Release Group CINEMANIA
    Дата кодирования : UTC 2014-03-01 11:56:35
    Программа кодирования : mkvmerge v6.7.0 (;Back to the Ground;) 64bit built on Jan 8 2014 15:10:52
    Библиотека кодирования : libebml v1.3.0 libmatroska v1.4.1

    Видео
    Идентификатор : 1
    Формат : AVC
    Формат/Информация : Advanced Video Codec
    Профиль формата : High@L4.1
    Параметр CABAC формата : Да
    Параметр ReFrames формата : 5 кадров
    Идентификатор кодека : V_MPEG4/ISO/AVC
    Продолжительность : 1 ч. 25 м.
    Битрейт : 4872 Кбит/сек
    Ширина : 1280 пикселей
    Высота : 720 пикселей
    Соотношение сторон : 16:9
    Режим частоты кадров : Постоянный
    Частота кадров : 23,976 кадра/сек
    Цветовое пространство : YUV
    Субдискретизация насыщенности : 4:2:0
    Битовая глубина : 8 бит
    Тип развёртки : Прогрессивная
    Бит/(Пиксели*Кадры) : 0.221
    Размер потока : 2,91 Гбайт (73%)
    Заголовок : Release Group CINEMANIA
    Язык : English
    Default : Да
    Forced : Нет

    Аудио #1
    Идентификатор : 2
    Формат : AC-3
    Формат/Информация : Audio Coding 3
    Расширение режима : CM (complete main)
    Параметр Endianness формата : Big
    Идентификатор кодека : A_AC3
    Продолжительность : 1 ч. 25 м.
    Вид битрейта : Постоянный
    Битрейт : 192 Кбит/сек
    Каналы : 2 канала
    Расположение каналов : Front: L R
    Частота : 48,0 КГц
    Битовая глубина : 16 бит
    Метод сжатия : С потерями
    Размер потока : 118 Мбайт (3%)
    Заголовок : den904
    Язык : Russian
    Default : Да
    Forced : Да

    Аудио #2
    Идентификатор : 3
    Формат : DTS
    Формат/Информация : Digital Theater Systems
    Режим : 16
    Параметр Endianness формата : Big
    Идентификатор кодека : A_DTS
    Продолжительность : 1 ч. 25 м.
    Вид битрейта : Постоянный
    Битрейт : 1509 Кбит/сек
    Каналы : 6 каналов
    Расположение каналов : Front: L C R, Side: L R, LFE
    Частота : 48,0 КГц
    Битовая глубина : 24 бит
    Метод сжатия : С потерями
    Размер потока : 924 Мбайт (22%)
    Язык : English
    Default : Нет
    Forced : Нет

    Текст
    Идентификатор : 4
    Формат : UTF-8
    Идентификатор кодека : S_TEXT/UTF8
    Идентификатор кодека/Информация : UTF-8 Plain Text
    Язык : English
    Default : Нет
    Forced : Нет

    Меню
    00:00:00.000 : en:00:00:00.000
    00:09:59.974 : en:00:09:59.974
    00:19:59.990 : en:00:19:59.990
    00:29:59.965 : en:00:29:59.965
    00:39:59.981 : en:00:39:59.981
    00:49:59.997 : en:00:49:59.997
    00:59:59.971 : en:00:59:59.971
    01:09:59.987 : en:01:09:59.987
    01:19:59.962 : en:01:19:59.962

    Залил: DGEKIGAN
    Размер скачиваемого торрента: 4.01 GB (4307878639 Bytes)

    Аттила / Attila - Master of an Empire (2013) BDRip 720p от CINEMANIA | L1 торрент скачать бесплатно
    загрузка...
    Рейтинг →
     (голосов: 1, оценка 5/5, голосовать можно 1 раз )

    Другие торренты по теме:

  • Аттила / Attila (2013) WEB-DL 720p | L1 торрент скачать бесплатно
  • Аттила / Attila (2013) WEB-DLRip | L1 торрент скачать бесплатно
  • Аттила / Attila - Master of an Empire (2013) BDRip 1080p от CINEMANIA | L1 скачать через торрент бесплатно
  • Аттила / Attila - Master of an Empire (2013) BDRip-AVC | L1 торрент скачать бесплатно
  • Мой Аттила Марсель / Attila Marcel (2013) HDRip от Scarabey | iTunes скачать через торрент бесплатно
  • Аттила-завоеватель / Attila (2001) BDRip 1080p от NovaLan скачать через торрент бесплатно
  • Аттила Завоеватель / Attila (2001) DVD-9 скачать через торрент бесплатно
  • Аттила-завоеватель / Attila скачать через торрент бесплатно


    • Комментарии (0):

      Информация

      Информация

        Посетители, находящиеся в группе Гости, не могут оставлять комментарии в данной новости.

        ↓ Меню



        ↓ Опрос

        А Вы добавили сайт в закладки?
        Да
        Не


        Top 10 за неделю (Фильмы)