.
Авторизация | Регистрация
» » Сенсация / Scoop (2006) BDRip by msltel | P, A торрент скачать бесплатно




    Сенсация / Scoop (2006) BDRip by msltel | P, A торрент скачать бесплатно

    Опубликовал: Админ | Дата: 27-02-2015, 11:10 | Просмотров: 235



    Русское название: Сенсация
    Русское название в мировом прокате: Scoop
    Создали в: 2006
    Категория жанра: Комедия, детектив
    Снималось в: Великобритания, США, BBC Films, Ingenious Film Partners, Jelly Roll Productions, Phoenix Wiley
    Главный режиссер: Вуди Аллен
    Актеры: Скарлетт Йоханссон, Хью Джекман, Ромола Гарай, Иэн МакШейн, Кевин МакНэлли, Вуди Аллен, Мэтт Дэй, Энтони Хэд, Джим Данк, Роберт Бафёрст, Джофф Белл, Кристофер Фулфорд, Найджел Линдсэй, Фенелла Вулгар, Пит Мастин, Дорин Мэнтл, Дэвид Шнайдер, Мира Сайал, Робин Керр, Ричард Стирлинг, Кэролин Бэкхаус, Гуо Тоа, Сэм Френд, Марк Хип, Сьюзи Кьюер, Джоди Халс, Элизабет Беррингтон, Руперт Фрейзер, Кристофер Годвин, Джулиан Гловер, Паула Уилкокс, Джон Стэндинг, Санджив Бхаскар, Джон Лайт, Тина Рат, Кэролайн Блэкистон, Ричард Джонсон, Уильям Хойланд, Мойя Брэди, Рози Кавальеро, Энтони О’Доннелл, Чарльз Дэнс, Линда Барон

    Сюжет фильма: Погибшего британского журналиста Джо Стромбела оплакивают его друзья и коллеги. Но даже в чистилище Джо не покидают мысли о работе, ведь он только что узнал сенсационную новость об убийце, орудующем в Лондоне. Как же ему теперь сделать работу, которая требует столько беготни? С помощью вполне живой Сондры Прански. Сондра — американская студентка, изучающая журналистику, приезжает к друзьям в Лондон. Во время выступления американского мага Сида Вотермана Сондра видит и слышит Джо. Он рассказывает ей о сенсационной новости, которая станет величайшим репортажем в её жизни, убеждая отправиться на поиски. Сондра бросается в погоню за сенсацией…

    Качество фильма: BDRip
    Информация о видео: XviD, 1905 Kбит/с, 720x400
    Информация о звуке: Русский, английский (AC3, 6 ch, 448 Кбит/с)
    Размер скачиваемого торрента: 2.18 ГБ
    Время просмотра: 01:35:33
    Перевод текста: Профессиональный многоголосый, авторский (Андрей Гаврилов)
    Субтитры: Русские, английские

    Исходник: KpucTo161 (HDtracker)

    Сравнение с исходником



    Награды
    Гойя, 2007 год
    Номинации (1):
    Лучший европейский фильм
    MediaInfo
    Общее
    Полное имя : D:VideoSensacija.2006.XviD.BDRipSensacija.2006.eng.srt
    Формат : SubRip
    Размер файла : 127 Кбайт

    Текст
    Формат : SubRip
    Метод сжатия : Без потерь

    Общее
    Полное имя : D:VideoSensacija.2006.XviD.BDRipSensacija.2006.Original.eng.ac3
    Формат : AC-3
    Формат/Информация : Audio Coding 3
    Размер файла : 306 Мбайт
    Продолжительность : 1 ч. 35 м.
    Режим общего битрейта : Постоянный
    Общий поток : 448 Кбит/сек

    Аудио
    Формат : AC-3
    Формат/Информация : Audio Coding 3
    Расширение режима : CM (complete main)
    Параметр Endianness формата : Big
    Продолжительность : 1 ч. 35 м.
    Вид битрейта : Постоянный
    Битрейт : 448 Кбит/сек
    Каналы : 6 каналов
    Расположение каналов : Front: L C R, Side: L R, LFE
    Частота : 48,0 КГц
    Битовая глубина : 16 бит
    Метод сжатия : С потерями
    Размер потока : 306 Мбайт (100%)

    Общее
    Полное имя : D:VideoSensacija.2006.XviD.BDRipSensacija.2006.rus.srt
    Формат : SubRip
    Размер файла : 141 Кбайт

    Текст
    Формат : SubRip
    Метод сжатия : Без потерь

    Общее
    Полное имя : D:VideoSensacija.2006.XviD.BDRipSensacija.2006.XviD.BDRip.avi
    Формат : AVI
    Формат/Информация : Audio Video Interleave
    Размер файла : 1,88 Гбайт
    Продолжительность : 1 ч. 35 м.
    Общий поток : 2815 Кбит/сек
    Программа кодирования : VirtualDubMod 1.5.10.2 (build 2540/release)
    Библиотека кодирования : VirtualDubMod build 2540/release

    Видео
    Идентификатор : 0
    Формат : MPEG-4 Visual
    Профиль формата : Advanced Simple@L5
    Параметр BVOP формата : 1
    Параметр QPel формата : Нет
    Параметр GMC формата : Без точки перехода
    Параметр матрицы формата : Default (H.263)
    Режим смешивания : Сжатый битовый поток
    Идентификатор кодека : XVID
    Идентификатор кодека/Подсказка : XviD
    Продолжительность : 1 ч. 35 м.
    Битрейт : 1905 Кбит/сек
    Ширина : 720 пикселей
    Высота : 400 пикселей
    Соотношение сторон : 16:9
    Частота кадров : 23,976 кадра/сек
    Цветовое пространство : YUV
    Субдискретизация насыщенности : 4:2:0
    Битовая глубина : 8 бит
    Тип развёртки : Прогрессивная
    Метод сжатия : С потерями
    Бит/(Пиксели*Кадры) : 0.276
    Размер потока : 1,27 Гбайт (68%)
    Библиотека кодирования : XviD 1.2.1 (UTC 2008-12-04)

    Аудио #1
    Идентификатор : 1
    Формат : AC-3
    Формат/Информация : Audio Coding 3
    Расширение режима : CM (complete main)
    Параметр Endianness формата : Big
    Идентификатор кодека : 2000
    Продолжительность : 1 ч. 35 м.
    Вид битрейта : Постоянный
    Битрейт : 448 Кбит/сек
    Каналы : 6 каналов
    Расположение каналов : Front: L C R, Side: L R, LFE
    Частота : 48,0 КГц
    Битовая глубина : 16 бит
    Метод сжатия : С потерями
    Размер потока : 306 Мбайт (16%)
    Выравнивание : Разделение по промежуткам
    Продолжительность промежутка : 42 мс. (1,00 видеокадр)
    Время предзагрузки промежутка : 500 мс.

    Аудио #2
    Идентификатор : 2
    Формат : AC-3
    Формат/Информация : Audio Coding 3
    Расширение режима : CM (complete main)
    Параметр Endianness формата : Big
    Идентификатор кодека : 2000
    Продолжительность : 1 ч. 35 м.
    Вид битрейта : Постоянный
    Битрейт : 448 Кбит/сек
    Каналы : 6 каналов
    Расположение каналов : Front: L C R, Side: L R, LFE
    Частота : 48,0 КГц
    Битовая глубина : 16 бит
    Метод сжатия : С потерями
    Размер потока : 306 Мбайт (16%)
    Выравнивание : Разделение по промежуткам
    Продолжительность промежутка : 42 мс. (1,00 видеокадр)
    Время предзагрузки промежутка : 500 мс.
    Скриншоты для ознакомления



    Залил: msltel
    Размер скачиваемого торрента: 2.18 GB (2338475194 Bytes)

    Сенсация / Scoop (2006) BDRip by msltel | P, A торрент скачать бесплатно
    загрузка...
    Рейтинг →
     (голосов: 1, оценка 3/5, голосовать можно 1 раз )

    Другие торренты по теме:



      Комментарии (0):

      Информация

      Информация

        Посетители, находящиеся в группе Гости, не могут оставлять комментарии в данной новости.

        ↓ Меню



        ↓ Опрос

        А Вы добавили сайт в закладки?
        Да
        Не


        Top 10 за неделю (Фильмы)