.
Авторизация | Регистрация
» » Золотая дверь / Falling Up (2009) BDRip 1080p от HDTRackeR торрент скачать бесплатно




    Золотая дверь / Falling Up (2009) BDRip 1080p от HDTRackeR торрент скачать бесплатно

    Опубликовал: Админ | Дата: 27-02-2015, 11:10 | Просмотров: 239



    Детально о кино
    Русское название: Золотая дверь
    Русское название в мировом прокате: Falling Up
    Создали в: 2009
    Категория жанра: Драма, мелодрама, комедия
    Главный режиссер: Дэвид М. Розенталь
    Актеры: Джозеф Кросс, Сара Ремер, Снуп Догг, Рэйчел Ли Кук, Клодетт Лали, Джо Пантолиано, Мими Роджерс, Аннетт О`Тул, Дэниэл Ньюман, Сэмюэл Пейдж, Фрэнки Шоу, Гордон Клэпп, Джим Пиддок, Питер Джейсон, Аджай Найду, Майкл Пэйнс, Джерри Бедноб, Эндрю Элвис Миллер, Сэм Пэнкейк, Эллен Траволта, Мария Сина, Брайан Окес, Гарри Рейли, Брайан Руссо

    Сюжет фильма:
    Студент медицины вынужденный оставить школу по семейным причинам, устраивается на работу швейцаром в элитный жилой дом в Нью-Йорке, где он влюбляется в одну из его жителей.



    Снималось в: США
    Время просмотра: 01:38:26
    Перевод текста: Профессиональный двухголосый

    Файл
    Кодек для видео: MPEG-4 AVC
    Качество фильма: BDRip 1080p
    Информация о видео: 15.0 Мбит/с, 1920x1080, 23.976 кадр/с
    Информация о звуке: Русский (AC3, 6 ch, 448 Кбит/с), английский (DTS, 6 ch, 1510 Кбит/с)
    Субтитры: Немецкие
    MI
    Общее
    Уникальный идентификатор : 213755220239077286940171348262237301162 (0xA0CFC208894749F9BC5267828E78E9AA)
    Полное имя : I:TFalling.Up.2009.BDRip.1080p.HDTRackeRFalling.Up.2009.BDRip.1080p.HDTRackeR.mkv
    Формат : Matroska
    Версия формата : Version 2
    Размер файла : 11,7 Гбайт
    Продолжительность : 1 ч. 38 м.
    Общий поток : 17,0 Мбит/сек
    Название фильма : MARQUISE release for HDTRackeR
    Дата кодирования : UTC 2013-03-29 02:59:10
    Программа кодирования : mkvmerge v3.4.0 (;Rapunzel;) сборка от May 15 2010 09:38:20
    Библиотека кодирования : libebml v0.8.0 libmatroska v0.9.0

    Видео
    Идентификатор : 1
    Формат : AVC
    Формат/Информация : Advanced Video Codec
    Профиль формата : High@L4.1
    Параметр CABAC формата : Да
    Параметр ReFrames формата : 4 кадра
    Идентификатор кодека : V_MPEG4/ISO/AVC
    Продолжительность : 1 ч. 38 м.
    Битрейт : 15,0 Мбит/сек
    Ширина : 1920 пикселей
    Высота : 1080 пикселей
    Соотношение сторон : 16:9
    Режим частоты кадров : Постоянный
    Частота кадров : 23,976 кадра/сек
    Цветовое пространство : YUV
    Субдискретизация насыщенности : 4:2:0
    Битовая глубина : 8 бит
    Тип развёртки : Прогрессивная
    Бит/(Пиксели*Кадры) : 0.302
    Размер потока : 10,1 Гбайт (86%)
    Заголовок : Видеоряд
    Библиотека кодирования : x264 core 125 r2208 d9d2288
    Настройки программы : cabac=1 / ref=4 / deblock=1:-3:-3 / analyse=0x3:0x133 / me=umh / subme=11 / psy=1 / psy_rd=1.00:0.10 / mixed_ref=1 / me_range=32 / chroma_me=1 / trellis=2 / 8x8dct=1 / cqm=0 / deadzone=21,11 / fast_pskip=0 / chroma_qp_offset=-3 / threads=12 / lookahead_threads=2 / sliced_threads=0 / nr=0 / deci-mate=1 / interlaced=0 / bluray_compat=0 / constrained_intra=0 / bframes=5 / b_pyramid=2 / b_adapt=2 / b_bias=0 / direct=3 / weightb=1 / open_gop=0 / weightp=2 / key-int=250 / keyint_min=25 / scenecut=40 / intra_refresh=0 / rc=2pass / mbtree=0 / bitrate=15000 / ratetol=1.0 / qcomp=0.60 / qpmin=0 / qpmax=69 / qpstep=4 / cplxblur=20.0 / qblur=0.5 / ip_ratio=1.40 / pb_ratio=1.30 / aq=1:1.00
    Язык : English
    Default : Да
    Forced : Нет

    Аудио #1
    Идентификатор : 2
    Формат : AC-3
    Формат/Информация : Audio Coding 3
    Расширение режима : CM (complete main)
    Параметр Endianness формата : Big
    Идентификатор кодека : A_AC3
    Продолжительность : 1 ч. 38 м.
    Вид битрейта : Постоянный
    Битрейт : 448 Кбит/сек
    Каналы : 6 каналов
    Расположение каналов : Front: L C R, Side: L R, LFE
    Частота : 48,0 КГц
    Битовая глубина : 16 бит
    Метод сжатия : С потерями
    Размер потока : 315 Мбайт (3%)
    Заголовок : закадровый ( R5)
    Язык : Russian
    Default : Да
    Forced : Нет

    Аудио #2
    Идентификатор : 3
    Формат : DTS
    Формат/Информация : Digital Theater Systems
    Режим : 16
    Параметр Endianness формата : Big
    Идентификатор кодека : A_DTS
    Продолжительность : 1 ч. 38 м.
    Вид битрейта : Постоянный
    Битрейт : 1509 Кбит/сек
    Каналы : 6 каналов
    Расположение каналов : Front: L C R, Side: L R, LFE
    Частота : 48,0 КГц
    Битовая глубина : 16 бит
    Метод сжатия : С потерями
    Размер потока : 1,04 Гбайт (9%)
    Заголовок : Оригинал
    Язык : English
    Default : Нет
    Forced : Нет

    Текст
    Идентификатор : 4
    Формат : UTF-8
    Идентификатор кодека : S_TEXT/UTF8
    Идентификатор кодека/Информация : UTF-8 Plain Text
    Язык : German
    Default : Нет
    Forced : Нет

    Меню
    00:00:00.000 : :Chapter 01
    00:09:19.100 : :Chapter 02
    00:20:07.789 : :Chapter 03
    00:34:48.336 : :Chapter 04
    00:40:47.445 : :Chapter 05
    00:45:14.670 : :Chapter 06
    00:48:19.521 : :Chapter 07
    00:54:56.376 : :Chapter 08
    00:58:45.396 : :Chapter 09
    01:05:05.026 : :Chapter 10
    01:11:36.709 : :Chapter 11
    01:20:56.476 : :Chapter 12
    01:38:26.233 : :Chapter 13

    ------------------------------------------------------------------------------------------------------------------

    x264 info: frame I:1111 Avg QP:17.55 size:226121
    x264 info: frame P:30174 Avg QP:19.62 size:138648
    x264 info: frame B:110347 Avg QP:22.24 size: 60124
    x264 info: consecutive B-frames: 1.5% 1.9% 10.8% 15.1% 12.8% 57.8%
    x264 total: encoded 141632 frames, 3.37 fps, 14990.85 kb/s

    Скриншоты для ознакомления


    Размер скачиваемого торрента: 11.66 GB (12516400307 Bytes)

    Золотая дверь / Falling Up (2009) BDRip 1080p от HDTRackeR торрент скачать бесплатно
    загрузка...
    Рейтинг →
     (голосов: 1, оценка 4/5, голосовать можно 1 раз )

    Другие торренты по теме:

  • Золотая дверь / Falling Up (2009) BDRip 720p | P торрент скачать бесплатно


    • Комментарии (0):

      Информация

      Информация

        Посетители, находящиеся в группе Гости, не могут оставлять комментарии в данной новости.

        ↓ Меню



        ↓ Опрос

        А Вы добавили сайт в закладки?
        Да
        Не


        Top 10 за неделю (Фильмы)