.
Авторизация | Регистрация
Хочешь лучшие торренты? Добавь свой email!
Добавить
» » Тайна Рагнарока / Gten Ragnarok (2013) HDRip-AVC | iPhone | L1 торрент скачать бесплатно




    Тайна Рагнарока / Gten Ragnarok (2013) HDRip-AVC | iPhone | L1 торрент скачать бесплатно

    Опубликовал: Админ | Дата: 27-02-2015, 11:10 | Просмотров: 240



    Тайна Рагнарока / G?ten Ragnarok (2013) HDRip-AVC | iPhone | L1

    Русское название: Тайна Рагнарока
    Русское название в мировом прокате: G?ten Ragnarok
    Создали в: 2013
    Категория жанра: боевик, приключения
    Главный режиссер: Миккел Бренне Сандемус
    Актеры: Пол Сверре Хаген, Николай Клеве Брок, Cофия Хелин, Мария Аннетт Таннерёд Берглю, Юлиан Подольски, Бьёрн Сундквист

    Сюжет фильма:
    Археолог Сигур Свендсен уже много лет одержим историей судна викингов Осеберг. Единственная рунная надпись, найденная на этом корабле, гласит: человек знает мало. Сигур уверен, что судно Осеберг скрывает ответ на тайну о Рагнароке — конце дней в скандинавской мифологии. Когда его друг Аллан находит подобные руны на камне с севера Норвегии, Сигур убеждается, что руны — это карта сокровищ. Вместе они отправляются в экспедицию, которая заводит их в нейтральную зону между Норвегией и Россией, которая не населена уже многие десятилетия. Здесь Сигур находит истинное значение рун, которые хранят ужасающую тайну.




    Снималось в: Норвегия
    Киностудия: Fantefilm, Film i V?st, Ghost VFX
    Время просмотра: 01:41:07
    Перевод текста: Русский любительский одноголосый закадровый


    Файл
    Кодек для видео: H.264
    Качество фильма: HDRip-AVC 480p | iPhone
    Информация о видео: 640x362@851x362 (2.35:1) at 23.976 fps, AVC at 1600 kbps
    Информация о звуке:
    1: ААС 2.0 192 kbps - Русский любительский одноголосый закадровый (datynet), перевод (Mannenr)
    2: ААС 2.0 180 kbps - Норвежский
    Субтитры: Отсутствуют

    MI

    General
    Complete name : C:CREATE480outGaten Ragnarok.2013 (SD).m4v
    Format : MPEG-4
    Codec ID : M4V
    File size : 1.42 GiB
    Duration : 1h 41mn
    Overall bit rate mode : Variable
    Overall bit rate : 2 006 Kbps
    Movie name : Тайна Рагнарока
    Performer : Mikkel Braenne Sandemose
    Genre : Action Adventure
    Recorded date : 2013-10-03
    Encoded date : UTC 2014-02-28 14:25:23
    Tagged date : UTC 2014-03-01 07:23:35
    Copyright : Fantefilm, Film i V?st, Ghost VFX
    Cover : Yes
    Comment : All myths have an origin
    sonm : G?ten Ragnarok
    desc : Археолог Сигерд Свендсен уже много лет одержим историей судна викингов Осберг. Единственная надпись, найденная на этом корабле написана на языке рун и гласит: человек знает мало. Сигерд уверен, что судно Осберг скрывает ответ на тайну о Рагнароке —
    ldes : Археолог Сигерд Свендсен уже много лет одержим историей судна викингов Осберг. Единственная надпись, найденная на этом корабле написана на языке рун и гласит: человек знает мало. Сигерд уверен, что судно Осберг скрывает ответ на тайну о Рагнароке — конце дней в норвежской мифологии. Когда его друг Аллан находит подобные руны на камне с севера Норвегии, Сигерд убеждается, что руны — это карта сокровищ. Вместе они отправляются в экспедицию, которая заводит их в нейтральную зону между Норвегией и Россией, которая не населена уже многие десятилетия. Здесь Сигерд находит истинное значение рун, которые хранят ужасающую тайну.
    stik : 9
    rtng : 0
    xid : Apple:vendor_id:2013-tt2363213


    Video #1
    ID : 1
    Format : AVC
    Format/Info : Advanced Video Codec
    Format profile : Baseline@L3.0
    Format settings, CABAC : No
    Format settings, ReFrames : 2 frames
    Codec ID : avc1
    Codec ID/Info : Advanced Video Coding
    Duration : 1h 41mn
    Bit rate : 1 600 Kbps
    Maximum bit rate : 7 649 Kbps
    Width : 640 pixels
    Height : 362 pixels
    Display aspect ratio : 2.35:1
    Frame rate mode : Constant
    Frame rate : 24.000 fps
    Color space : YUV
    Chroma subsampling : 4:2:0
    Bit depth : 8 bits
    Scan type : Progressive
    Bits/(Pixel*Frame) : 0.288
    Stream size : 1.13 GiB (80%)
    Writing library : x264 core 140 r2377 40 929f149 tMod 8-bit@4:2:0 X86_64
    Encoding settings : cabac=0 / ref=2 / deblock=1:-2:-2 / analyse=0x1:0x131 / me=umh / subme=7 / psy=1 / fade_compensate=1.00 / psy_rd=1.00:0.15 / mixed_ref=1 / me_range=32 / chroma_me=1 / trellis=2 / 8x8dct=0 / cqm=0 / deadzone=21,11 / fast_pskip=0 / chroma_qp_offset=-3 / threads=12 / lookahead_threads=2 / sliced_threads=0 / nr=0 / decimate=0 / interlaced=0 / bluray_compat=0 / constrained_intra=0 / fgo=0 / bframes=0 / weightp=0 / keyint=250 / keyint_min=23 / scenecut=40 / intra_refresh=0 / rc_lookahead=80 / rc=2pass / mbtree=1 / bitrate=1600 / ratetol=1.0 / qcomp=0.60 / qpmin=0:0:0 / qpmax=69:69:69 / qpstep=4 / cplxblur=20.0 / qblur=0.5 / vbv_maxrate=5000 / vbv_bufsize=5000 / nal_hrd=none / filler=0 / ip_ratio=1.35 / aq=4:0.90 / aq-sensitivity=10.00 / aq-factor=1.00:1.00:1.00 / aq2=0 / aq3=0

    Language : English
    Encoded date : UTC 2014-02-28 14:25:23
    Tagged date : UTC 2014-02-28 14:25:44
    Matrix coefficients : BT.709

    Video #2
    ID : 5
    Format : JPEG
    Codec ID : jpeg
    Duration : 1h 41mn
    Duration_LastFrame : -8mn 52s
    Bit rate mode : Variable
    Bit rate : 607 bps
    Width : 640 pixels
    Height : 272 pixels
    Display aspect ratio : 2.35:1
    Frame rate mode : Constant
    Frame rate : 0.002 fps
    Color space : YUV
    Chroma subsampling : 4:2:0
    Bit depth : 8 bits
    Compression mode : Lossy
    Bits/(Pixel*Frame) : 1.743
    Stream size : 408 KiB (0%)
    Language : English
    Encoded date : UTC 2014-03-01 07:21:16
    Tagged date : UTC 2014-03-01 07:21:16

    Audio #1
    ID : 2
    Format : AAC
    Format/Info : Advanced Audio Codec
    Format profile : LC
    Codec ID : 40
    Duration : 1h 41mn
    Bit rate mode : Variable
    Bit rate : 220 Kbps
    Maximum bit rate : 262 Kbps
    Channel(s) : 2 channels
    Channel positions : Front: L R
    Sampling rate : 44.1 KHz
    Compression mode : Lossy
    Stream size : 159 MiB (11%)
    Title : Russian VO
    Language : Russian
    Encoded date : UTC 2014-02-28 14:20:34
    Tagged date : UTC 2014-02-28 14:25:44

    Audio #2
    ID : 3
    Format : AAC
    Format/Info : Advanced Audio Codec
    Format profile : LC
    Codec ID : 40
    Duration : 1h 41mn
    Bit rate mode : Variable
    Bit rate : 183 Kbps
    Maximum bit rate : 232 Kbps
    Channel(s) : 2 channels
    Channel positions : Front: L R
    Sampling rate : 48.0 KHz
    Compression mode : Lossy
    Stream size : 132 MiB (9%)
    Title : Original
    Language : Norwegian
    Encoded date : UTC 2014-02-28 14:23:33
    Tagged date : UTC 2014-02-28 14:25:44

    Menu #1
    00:00:00.000 : Chapter 1
    00:10:00.000 : Chapter 2
    00:20:00.000 : Chapter 3
    00:30:00.000 : Chapter 4
    00:40:00.000 : Chapter 5
    00:50:00.000 : Chapter 6
    01:00:00.000 : Chapter 7
    01:10:00.000 : Chapter 8
    01:20:00.000 : Chapter 9
    01:30:00.000 : Chapter 10
    01:40:00.000 : Chapter 11

    Menu #2
    ID : 4
    Codec ID : text
    Duration : 1h 41mn
    Language : English
    Encoded date : UTC 2014-03-01 07:21:13
    Tagged date : UTC 2014-03-01 07:21:13
    Bit rate mode : VBR
    Duration_LastFrame : -532292


    iTunes Meta Tags

    Sort Name: G?ten Ragnarok
    XID: Apple:vendor_id:2013-tt2363213
    Copyright: Fantefilm, Film i V?st, Ghost VFX
    Screenwriters: John K?re Raake
    Director: Mikkel Braenne Sandemose
    Cast: P?l Sverre Valheim Hagen (Sigurd Svendsen), Nicolai Cleve Broch (Allan), Bj?rn Sundquist (Leif), Sofia Helin (Elisabeth), Maria Annette Tander?d Berglyd (Ragnhild), Julian Podolski (Brage), Jens Hult?n (Viking king)
    Studio: Fantefilm, Film i V?st, Ghost VFX
    Long Deion: Археолог Сигерд Свендсен уже много лет одержим историей судна викингов Осберг. Единственная надпись, найденная на этом корабле написана на языке рун и гласит: человек знает мало. Сигерд уверен, что судно Осберг скрывает ответ на тайну о Рагнароке — конце дней в норвежской мифологии. Когда его друг Аллан находит подобные руны на камне с севера Норвегии, Сигерд убеждается, что руны — это карта сокровищ. Вместе они отправляются в экспедицию, которая заводит их в нейтральную зону между Норвегией и Россией, которая не населена уже многие десятилетия. Здесь Сигерд находит истинное значение рун, которые хранят ужасающую тайну.
    Deion: Археолог Сигерд Свендсен уже много лет одержим историей судна викингов Осберг. Единственная надпись, найденная на этом корабле написана на языке рун и гласит: человек знает мало. Сигерд уверен, что судно Осберг скрывает ответ на тайну о Рагнароке —
    Release Date: 2013-10-03
    Genre: Action Adventure
    Comments: All myths have an origin
    Artist: Mikkel Braenne Sandemose
    Name: Тайна Рагнарока
    x264

    x264 info: frame I:2732 Avg QP:17.64 size: 22761
    x264 info: frame P:142893 Avg QP:20.11 size: 8051
    x264 info: mb I I16..4: 46.4% 0.0% 53.6%
    x264 info: mb P I16..4: 1.8% 0.0% 1.9% P16..4: 49.0% 15.9% 8.9% 1.8% 0.8% skip:20.0%
    x264 info: coded y,uvDC,uvAC intra: 49.3% 58.6% 30.5% inter: 37.0% 33.4% 14.0%
    x264 info: i16 v,h,dc,p: 54% 13% 9% 24%
    x264 info: i4 v,h,dc,ddl,ddr,vr,hd,vl,hu: 35% 12% 13% 6% 8% 8% 6% 7% 5%
    x264 info: i8c dc,h,v,p: 61% 13% 21% 5%
    x264 info: ref P L0: 74.1% 25.9%
    x264 info: kb/s:1598.71




    Залил: gekka
    Размер скачиваемого торрента: 1.42 GB (1521639730 Bytes)

    Тайна Рагнарока / Gten Ragnarok (2013) HDRip-AVC | iPhone | L1 торрент скачать бесплатно
    загрузка...
    Рейтинг →
     (голосов: 1, оценка 4/5, голосовать можно 1 раз )

    Другие торренты по теме:

  • Тайна Рагнарока / Ragnarok (2013) BDRip 720p от CINEMANIA | L2 скачать через торрент бесплатно
  • Тайна Рагнарока / Ragnarok (2013) BDRip 1080p от CINEMANIA | L2 скачать через торрент бесплатно
  • Тайна Рагнарока / Gten Ragnarok (2013) BDRip 1080p от GORESEWAGE | L1 скачать через торрент бесплатно
  • Тайна Рагнарока / Gten Ragnarok (2013) BDRip 720p от GORESEWAGE | L1 скачать через торрент бесплатно
  • Тайна Рагнарока / Gten Ragnarok (2013) HDRip | L1 скачать через торрент бесплатно
  • Тайна Рагнарока / Ragnarok (2013) HDRip-AVC от ExKinoRay | L2
  • Тайна Рагнарока / Ragnarok (2013) BDRip | L2
  • Тайна Рагнарока / Gten Ragnarok (2013) BDRemux 1080p от GORESEWAGE | L2, L1


    • Комментарии (0):

      Информация

      Информация

        Посетители, находящиеся в группе Гости, не могут оставлять комментарии в данной новости.

        ↓ Меню



        ↓ Опрос

        А Вы добавили сайт в закладки?
        Да
        Не


        Top 10 за месяц (Фильмы)