.
Авторизация | Регистрация
Хочешь лучшие торренты? Добавь свой email!
Добавить
» » Из пекла / Out of the Furnace (2013) HDRip-AVC | iPhone | L2 торрент скачать бесплатно




    Из пекла / Out of the Furnace (2013) HDRip-AVC | iPhone | L2 торрент скачать бесплатно

    Опубликовал: Админ | Дата: 27-02-2015, 11:10 | Просмотров: 319



    Из пекла / Out of the Furnace (2013) HDRip-AVC | iPhone | L2

    Русское название: Из пекла
    Русское название в мировом прокате: Out of the Furnace
    Создали в: 2013
    Категория жанра: триллер, драма, криминал
    Главный режиссер: Скотт Купер
    Актеры: Кристиан Бэйл, Вуди Харрельсон, Кейси Аффлек, Форест Уитакер, Уиллем Дефо, Зои Салдана, Сэм Шепард, Дендри Тейлор, Карл Киарфалио, Нэнси Моссе

    Сюжет фильма:
    Когда Родни Бэйз таинственно исчезает, а правоохранительные органы при этом действуют недостаточно быстро, его старший брат Рассел берет дело в свои руки, чтобы добиться справедливости.




    Снималось в: США
    Киностудия: Appian Way, Energy Entertainment, Red Granite Pictures
    Время просмотра: 01:56:05
    Перевод текста: Русский любительский двухголосый закадровый


    Файл
    Кодек для видео: H.264
    Качество фильма: HDRip-AVC 480p | iPhone
    Информация о видео: 640x362@852x362 (2.35:1) at 23.976 fps, AVC at 1700 kbps
    Информация о звуке:
    1: ААС 2.0 192 kbps - Русский любительский двухголосый закадровый
    2: ААС 2.0 192 kbps - Английский
    Субтитры: Английские

    MI

    General
    Complete name : C:CREATE480outOut of the Furnace.2013 (SD).m4v
    Format : MPEG-4
    Codec ID : M4V
    File size : 1.69 GiB
    Duration : 1h 56mn
    Overall bit rate mode : Variable
    Overall bit rate : 2 089 Kbps
    Movie name : Из пекла
    Performer : Scott Cooper
    Genre : Thriller
    Recorded date : UTC 2013-12-04 08:00:00
    Encoded date : UTC 2014-03-01 06:37:30
    Tagged date : UTC 2014-03-01 06:49:00
    Copyright : Appian Way, Energy Entertainment, Red Granite Pictures
    Cover : Yes
    Comment : Sometimes your battles choose you
    sonm : Out of the Furnace
    desc : Когда Родни Бэйз таинственно исчезает, а правоохранительные органы при этом действуют недостаточно быстро, его старший брат Рассел берет дело в свои руки, чтобы добиться справедливости.
    ldes : Когда Родни Бэйз таинственно исчезает, а правоохранительные органы при этом действуют недостаточно быстро, его старший брат Рассел берет дело в свои руки, чтобы добиться справедливости.
    stik : 9
    rtng : 0
    cnID : 791763884
    xid : Apple:vendor_id:2013-462240
    iTunEXTC : mpaa|R|400|

    Video #1
    ID : 1
    Format : AVC
    Format/Info : Advanced Video Codec
    Format profile : Baseline@L3.0
    Format settings, CABAC : No
    Format settings, ReFrames : 2 frames
    Codec ID : avc1
    Codec ID/Info : Advanced Video Coding
    Duration : 1h 56mn
    Bit rate : 1 700 Kbps
    Maximum bit rate : 7 921 Kbps
    Width : 640 pixels
    Height : 362 pixels
    Display aspect ratio : 2.35:1
    Frame rate mode : Constant
    Frame rate : 23.976 fps
    Color space : YUV
    Chroma subsampling : 4:2:0
    Bit depth : 8 bits
    Scan type : Progressive
    Bits/(Pixel*Frame) : 0.306
    Stream size : 1.38 GiB (81%)
    Title : Out of the Furnace _2013_
    Writing library : x264 core 140 r2377 40 929f149 tMod 8-bit@4:2:0 X86_64
    Encoding settings : cabac=0 / ref=2 / deblock=1:-2:-2 / analyse=0x1:0x131 / me=umh / subme=7 / psy=1 / fade_compensate=1.00 / psy_rd=1.00:0.15 / mixed_ref=1 / me_range=32 / chroma_me=1 / trellis=2 / 8x8dct=0 / cqm=0 / deadzone=21,11 / fast_pskip=0 / chroma_qp_offset=-3 / threads=12 / lookahead_threads=2 / sliced_threads=0 / nr=0 / decimate=0 / interlaced=0 / bluray_compat=0 / constrained_intra=0 / fgo=0 / bframes=0 / weightp=0 / keyint=250 / keyint_min=23 / scenecut=40 / intra_refresh=0 / rc_lookahead=80 / rc=2pass / mbtree=1 / bitrate=1700 / ratetol=1.0 / qcomp=0.60 / qpmin=0:0:0 / qpmax=69:69:69 / qpstep=4 / cplxblur=20.0 / qblur=0.5 / vbv_maxrate=5000 / vbv_bufsize=5000 / nal_hrd=none / filler=0 / ip_ratio=1.35 / aq=4:0.90 / aq-sensitivity=10.00 / aq-factor=1.00:1.00:1.00 / aq2=0 / aq3=0
    Language : English
    Encoded date : UTC 2014-03-01 06:37:30
    Tagged date : UTC 2014-03-01 06:38:00
    Matrix coefficients : BT.709

    Video #2
    ID : 6
    Format : JPEG
    Codec ID : jpeg
    Duration : 1h 56mn
    Bit rate mode : Variable
    Bit rate : 909 bps
    Width : 640 pixels
    Height : 272 pixels
    Display aspect ratio : 2.35:1
    Frame rate mode : Variable
    Frame rate : 0.003 fps
    Minimum frame rate : 0.002 fps
    Maximum frame rate : 0.007 fps
    Color space : YUV
    Chroma subsampling : 4:2:0
    Bit depth : 8 bits
    Compression mode : Lossy
    Bits/(Pixel*Frame) : 1.741
    Stream size : 888 KiB (0%)
    Language : English
    Encoded date : UTC 2014-03-01 06:48:57
    Tagged date : UTC 2014-03-01 06:48:57

    Audio #1
    ID : 2
    Format : AAC
    Format/Info : Advanced Audio Codec
    Format profile : LC
    Codec ID : 40
    Duration : 1h 56mn
    Bit rate mode : Variable
    Bit rate : 192 Kbps
    Maximum bit rate : 228 Kbps
    Channel(s) : 2 channels
    Channel positions : Front: L R
    Sampling rate : 48.0 KHz
    Compression mode : Lossy
    Stream size : 158 MiB (9%)
    Title : DVO _Jimmy J._
    Language : Russian
    Encoded date : UTC 2014-03-01 06:31:17
    Tagged date : UTC 2014-03-01 06:38:00

    Audio #2
    ID : 3
    Format : AAC
    Format/Info : Advanced Audio Codec
    Format profile : LC
    Codec ID : 40
    Duration : 1h 56mn
    Bit rate mode : Variable
    Bit rate : 197 Kbps
    Maximum bit rate : 233 Kbps
    Channel(s) : 2 channels
    Channel positions : Front: L R
    Sampling rate : 48.0 KHz
    Compression mode : Lossy
    Stream size : 164 MiB (9%)
    Title : Original
    Language : English
    Encoded date : UTC 2014-03-01 06:35:14
    Tagged date : UTC 2014-03-01 06:38:00

    Text
    ID : 4
    Format : Timed Text
    Muxing mode : sbtl
    Codec ID : tx3g
    Duration : 1h 52mn
    Bit rate mode : Variable
    Bit rate : 51 bps
    Stream size : 42.0 KiB (0%)
    Title : Subtitle English
    Language : English
    Encoded date : UTC 2014-03-01 06:38:00
    Tagged date : UTC 2014-03-01 06:38:00

    Menu
    ID : 5
    Codec ID : text
    Duration : 1h 56mn
    Language : English
    Encoded date : UTC 2014-03-01 06:38:20
    Tagged date : UTC 2014-03-01 06:38:20
    Bit rate mode : CBR
    iTunes Meta Tags

    Sort Name: Out of the Furnace
    XID: Apple:vendor_id:2013-462240
    contentID: 791763884
    Copyright: Appian Way, Energy Entertainment, Red Granite Pictures
    Screenwriters: Брэд Ингелсби, Скотт Купер
    Producers: Риза Азиз, Джейсон Бекман, Робби Бреннер
    Director: Скотт Купер
    Cast: Кристиан Бэйл, Вуди Харрельсон, Кейси Аффлек, Форест Уитакер, Уиллем Дефо, Зои Салдана, Сэм Шепард, Дендри Тейлор, Карл Киарфалио, Нэнси Моссер * Christian Bale (Russell Baze), Zoe Saldana (Lena Taylor), Woody Harrelson (Harlan DeGroat), Sam Shepard (Gerald ;Red; Baze), Willem Dafoe (John Petty), Forest Whitaker (Chief Wesley Barnes), Casey Affleck (Rodney Baze Jr.), Boyd Holbrook (Tattooed Guy), Tom Bower (Dan Dugan), Mark Kubr (SWAT Team), Gordon Michaels (Bergen County Officer), Jack Erdie (Meth Guy), Efka Kvaraciejus (Brady)
    Studio: Appian Way, Energy Entertainment, Red Granite Pictures
    Rating: 5
    Long Deion: Когда Родни Бэйз таинственно исчезает, а правоохранительные органы при этом действуют недостаточно быстро, его старший брат Рассел берет дело в свои руки, чтобы добиться справедливости.
    Deion: Когда Родни Бэйз таинственно исчезает, а правоохранительные органы при этом действуют недостаточно быстро, его старший брат Рассел берет дело в свои руки, чтобы добиться справедливости.
    Release Date: 2013-12-04T08:00:00Z
    Genre: Thriller
    Comments: Sometimes your battles choose you
    Artist: Scott Cooper
    Name: Из пекла
    x264

    x264 info: frame I:1957 Avg QP:17.03 size: 26408
    x264 info: frame P:165108 Avg QP:19.72 size: 8631
    x264 info: mb I I16..4: 38.4% 0.0% 61.6%
    x264 info: mb P I16..4: 1.0% 0.0% 1.5% P16..4: 48.7% 17.0% 9.3% 1.5% 0.8% skip:20.2%
    x264 info: coded y,uvDC,uvAC intra: 57.1% 69.9% 41.7% inter: 41.1% 36.5% 17.0%
    x264 info: i16 v,h,dc,p: 49% 13% 9% 29%
    x264 info: i4 v,h,dc,ddl,ddr,vr,hd,vl,hu: 39% 11% 13% 6% 7% 8% 5% 7% 4%
    x264 info: i8c dc,h,v,p: 54% 14% 25% 7%
    x264 info: ref P L0: 75.4% 24.6%
    x264 info: kb/s:1695.51




    Залил: gekka
    Размер скачиваемого торрента: 1.69 GB (1819933184 Bytes)

    Из пекла / Out of the Furnace (2013) HDRip-AVC | iPhone | L2 торрент скачать бесплатно
    загрузка...
    Рейтинг →
     (голосов: 1, оценка 5/5, голосовать можно 1 раз )

    Другие торренты по теме:

  • OST - Хеллбой: Герой из пекла / Hellboy (2004) MP3
  • Хеллбой: Герой из пекла / Hellboy (2004) BDRip-AVC от olegek70 | D, P, P2, A | Режиссерская версия / Directors cut
  • Хеллбой: Герой из пекла / Hellboy (2004) BDRip 720p | D, P, P2, A (Режиссёрская версия)
  • Хеллбой: Герой из пекла / Hellboy (2004) BDRip 1080p | Режиссёрская версия | D, P, P2, A
  • Из пекла / Out of the Furnace (2013) DVDScr | L2 скачать через торрент бесплатно
  • Из пекла / Out of the Furnace (2013) DVDScr-AVC | iPhone скачать через торрент бесплатно
  • Из пекла / Out of the Furnace (2013) DVDScr 720р | L2 скачать через торрент бесплатно
  • Из пекла / Out of the Furnace (2013) BDRip 1080p от GORESEWAGE | 2xL2


    • Комментарии (0):

      Информация

      Информация

        Посетители, находящиеся в группе Гости, не могут оставлять комментарии в данной новости.

        ↓ Меню



        ↓ Опрос

        А Вы добавили сайт в закладки?
        Да
        Не


        Top 10 за месяц (Фильмы)