.
Авторизация | Регистрация
» » Я, Франкенштейн / I, Frankenstein (2014) BDRip-AVC | Лицензия торрент скачать бесплатно




    Я, Франкенштейн / I, Frankenstein (2014) BDRip-AVC | Лицензия торрент скачать бесплатно

    Опубликовал: Админ | Дата: 27-02-2015, 11:10 | Просмотров: 308



    Детально о кино
    Русское название: Я, Франкенштейн
    Русское название в мировом прокате: I, Frankenstein
    Создали в: 2014
    Категория жанра: Фэнтези, боевик, приключения
    Снималось в: США, Австралия, Hopscotch Features, Lakeshore Entertainment
    Главный режиссер: Стюарт Битти
    Актеры: Аарон Экхарт, Ивонн Страховски, Билл Найи, Джай Кортни, Миранда Отто, Кэйтлин Стэйси, Кевин Гревье, Аден Янг, Дениз Акдениз, Крис Пэнг, Вирджиния Ле Брун
    Сюжет фильма:
    Описание фильма

    Сюжет фильма: Монстр Адам, созданный доктором Франкенштейном, благодаря своим уникальным генам доживает до наших дней. Оказавшись в мрачном готическом метрополисе, он попадает в самую гущу вековой войны между двумя кланами бессмертных существ... Мрачное порождение Виктора Франкенштейна живёт уединённой жизнью, понимая, что он другой, и что ему не место среди простых людей. Впрочем, пока не натыкается на гаргулий.... Да, если бы не демоны, которым Адам нужен в виде подопытной крысы, он бы никогда не вернулся из добровольной ссылки. Возвращение Адама превращает зыбкое равновесие в войну на истребление. Сам он оказывается в эпицентре конфликта, и, не осознавая, что является ключевой фигурой в игре вечных противников, яростно вступает в схватку с адскими тварями...



    Файл
    Качество фильма: BDRip (AVC)
    Информация о видео: MPEG-4 AVC, 2252 Кбит/с, 1024x428
    Информация о звуке: AC3, 6 ch, 448 Кбит/с
    Размер скачиваемого торрента: 1.76 ГБ
    Время просмотра: 01:33:10
    Перевод текста: Дублированный лицензия
    x264

    x264 info: frame I:1408 Avg QP:15.09 size: 73666
    x264 info: frame P:36150 Avg QP:18.96 size: 21762
    x264 info: frame B:96315 Avg QP:21.06 size: 7072

    MI
    Общее
    Уникальный идентификатор : 179453333209044847147346397505052247242 (0x8701746E155C4CDAA60136AF158484CA)
    Полное имя : C:Ya.Frankenshtejn.2014.BDRip(AVC).by_bog3417.mkv
    Формат : Matroska
    Версия формата : Version 2
    Размер файла : 1,76 Гбайт
    Продолжительность : 1 ч. 33 м.
    Общий поток : 2701 Кбит/сек
    Название фильма : rip by bog3417
    Дата кодирования : UTC 2014-03-01 05:36:33
    Программа кодирования : mkvmerge v6.7.0 (;Back to the Ground;) 64bit built on Jan 8 2014 15:10:52
    Библиотека кодирования : libebml v1.3.0 libmatroska v1.4.1

    Видео
    Идентификатор : 1
    Формат : AVC
    Формат/Информация : Advanced Video Codec
    Профиль формата : High@L4.1
    Параметр CABAC формата : Да
    Параметр ReFrames формата : 9 кадров
    Идентификатор кодека : V_MPEG4/ISO/AVC
    Продолжительность : 1 ч. 33 м.
    Битрейт : 2252 Кбит/сек
    Ширина : 1024 пикселя
    Высота : 428 пикселей
    Соотношение сторон : 2,40:1
    Режим частоты кадров : Постоянный
    Частота кадров : 23,976 кадра/сек
    Цветовое пространство : YUV
    Субдискретизация насыщенности : 4:2:0
    Битовая глубина : 8 бит
    Тип развёртки : Прогрессивная
    Бит/(Пиксели*Кадры) : 0.214
    Размер потока : 1,43 Гбайт (81%)
    Заголовок : rip by bog3417
    Библиотека кодирования : x264 core 138 r2358 9e941d1
    Настройки программы : cabac=1 / ref=9 / deblock=1:-2:-2 / analyse=0x3:0x133 / me=umh / subme=10 / psy=1 / psy_rd=1.00:0.00 / mixed_ref=1 / me_range=32 / chroma_me=1 / trellis=2 / 8x8dct=1 / cqm=0 / deadzone=21,11 / fast_pskip=0 / chroma_qp_offset=-2 / threads=8 / lookahead_threads=2 / sliced_threads=0 / nr=0 / decimate=0 / interlaced=0 / bluray_compat=0 / stitchable=1 / constrained_intra=0 / bframes=10 / b_pyramid=2 / b_adapt=2 / b_bias=0 / direct=3 / weightb=1 / open_gop=0 / weightp=2 / keyint=240 / keyint_min=23 / scenecut=40 / intra_refresh=0 / rc_lookahead=40 / rc=2pass / mbtree=1 / bitrate=2252 / ratetol=1.0 / qcomp=0.60 / qpmin=10 / qpmax=51 / qpstep=4 / cplxblur=20.0 / qblur=0.5 / ip_ratio=1.40 / aq=1:1.00
    Язык : English
    Default : Да
    Forced : Нет

    Аудио
    Идентификатор : 2
    Формат : AC-3
    Формат/Информация : Audio Coding 3
    Расширение режима : CM (complete main)
    Параметр Endianness формата : Big
    Идентификатор кодека : A_AC3
    Продолжительность : 1 ч. 33 м.
    Вид битрейта : Постоянный
    Битрейт : 448 Кбит/сек
    Каналы : 6 каналов
    Расположение каналов : Front: L C R, Side: L R, LFE
    Частота : 48,0 КГц
    Битовая глубина : 16 бит
    Метод сжатия : С потерями
    Размер потока : 298 Мбайт (17%)
    Язык : Russian
    Default : Да
    Forced : Нет

    Меню
    00:00:00.000 : en:00:00:00.000
    00:12:24.077 : en:00:12:24.077
    00:22:07.785 : en:00:22:07.785
    00:33:21.958 : en:00:33:21.958
    00:44:51.772 : en:00:44:51.772
    00:56:45.527 : en:00:56:45.527
    01:07:12.487 : en:01:07:12.487
    01:21:14.661 : en:01:21:14.661


    Скриншоты для ознакомления





    Размер скачиваемого торрента: 1.76 GB (1885464813 Bytes)

    Я, Франкенштейн / I, Frankenstein (2014) BDRip-AVC | Лицензия торрент скачать бесплатно
    загрузка...
    Рейтинг →
     (голосов: 1, оценка 4/5, голосовать можно 1 раз )

    Другие торренты по теме:



      Комментарии (0):

      Информация

      Информация

        Посетители, находящиеся в группе Гости, не могут оставлять комментарии в данной новости.

        ↓ Меню



        ↓ Опрос

        А Вы добавили сайт в закладки?
        Да
        Не


        Top 10 за неделю (Фильмы)

        Ёлки 5 (2016) WEB-DLRip скачать торрент бесплатно

        (просмотров: 571)
        Разрушение / Demolition (2015) BDRemux 1080p от ExKinoRay | L скачать торрент бесплатно

        (просмотров: 381)
        Мой парень – киллер / Mr. Right (2015) WEB-DL 1080p | L скачать торрент бесплатно

        (просмотров: 381)
        Экипаж (2016) BDRip от New-Team | D | Лицензия скачать торрент бесплатно
        АНОНСЫ МОИХ РАЗДАЧ
        (просмотров: 351)
        Экипаж (2016) BDRip от New-Team | D | Лицензия скачать торрент бесплатно
        АНОНСЫ МОИХ РАЗДАЧ
        (просмотров: 311)
        Гений / Genius (2016) WEB-DLRip 1080p | Звук TS скачать торрент бесплатно

        (просмотров: 211)
        Кухня (1-5 сезоны: 1-100 серии из 100 + 2 бонуса) / 2012-2015 / РУ / DVDRip, WEB-DLRip скачать торрент бесплатно

        (просмотров: 201)
        Дуэлянт (2016) WEB-DLRip от Scarabey | iTunes скачать торрент бесплатно

        (просмотров: 191)
        Демон внутри / Вскрытие Джейн Доу / The Autopsy of Jane Doe (2016) WEB-DLRip от Scarabey | P скачать торрент бесплатно
        Мы В КОНТАКТЕ =)
        (просмотров: 181)
        Кухня (2015) SATRip скачать торрент бесплатно
        Кухня ? Кухня (2015) SATRip скачать торрент бесплатно
        (просмотров: 181)