.
Авторизация | Регистрация
» » Мачете убивает / Machete Kills (2013) BDRip 1080p от GORESEWAGE | UK Transfer скачать через торрент бесплатно




    Мачете убивает / Machete Kills (2013) BDRip 1080p от GORESEWAGE | UK Transfer скачать через торрент бесплатно

    Опубликовал: Админ | Дата: 27-02-2015, 11:10 | Просмотров: 292



    Мачете убивает / Machete Kills

    Создали в: 2013
    Снималось в: США, Россия
    Категория жанра: боевик, комедия, криминал
    Время просмотра: 01:47:32
    Перевод текста 1: Профессиональный (дублированный) BD Rus
    Перевод текста 2: Любительский (одноголосый закадровый) Дмитрий Есарев
    Оригинальная аудиодорожка: English
    Субтитры: English (Full, SDH)
    Киностудия: AR Films, Aldamisa Entertainment, 1821 Pictures, Quick Draw Productions, Demarest Films, Overnight Films

    Главный режиссёр: Роберт Родригес / Robert Rodriguez

    Актеры: Дэнни Трехо, Эмбер Хёрд, София Вергара, Джессика Альба, Ванесса Энн Хадженс, Калли Эрнандес, Демиан Бишир, Мэл Гибсон, Чарли Шин, Леди Гага, Алекса ПенаВега, Антонио Бандерас, Кьюба Гудинг мл., Мишель Родригес, Том Савини и др.

    Сюжет: Правительство США вербует Мачете для миссии, которую не под силу выполнить простому смертному. Мачете прорывается в Мексику, чтобы схватить безумного лидера карательного отряда и эксцентричного миллиардера, торгующего оружием, который, в свою очередь, лелеет мечту начать войну планетарного масштаба и запустить смертельно опасное оружие в космос. И только Мачете может предотвратить этот глобальный хаос.



    Sample

    Качество фильма: BDRip 1080p
    Контейнер: MKV
    Информация о видео кодек: MPEG-4 AVC Video
    Информация о звуке кодек: DTS
    Информация о видео: MPEG-4 AVC Video / 18600 kbps / 1920x1040p / 23,976 fps / 16:9 / High Profile 4.1
    Информация о звуке 1: Russian / DTS / 5.1 / 48 kHz / 1536 kbps / 24-bit | Dub BD Rus
    Информация о звуке 2: Russian / DTS / 5.1 / 48 kHz / 1536 kbps / 24-bit | VO Дмитрий Есарев
    Информация о звуке 3: English / DTS / 5.1 / 48 kHz / 1536 kbps / 24-bit | Original
    Навигация по главам: да

    Screens

    MediaInfo
    C:/GORESEWAGE/Machete Kills 2013 UK Transfer BDRip 1080p GORESEWAGE.mkv
    General
    Unique ID : 197202544507449594278375586186638305776 (0x945BD41C5A3FDBCEA7122A3EC3F6A9F0)
    Complete name : C:/GORESEWAGE/Machete Kills 2013 UK Transfer BDRip 1080p GORESEWAGE.mkv
    Format : Matroska
    Format version : Version 4 / Version 2
    File size : 17.7 GiB
    Duration : 1h 47mn
    Overall bit rate : 23.6 Mbps
    Movie name : Machete Kills 2013 UK Transfer BDRip 1080p GORESEWAGE
    Encoded date : UTC 2014-03-02 08:55:38
    Writing application : mkvmerge v6.1.0 (;Old Devil;) built on Mar 2 2013 14:32:37
    Writing library : libebml v1.3.0 libmatroska v1.4.0
    Attachment : Yes
    Video #1
    ID : 1
    Format : AVC
    Format/Info : Advanced Video Codec
    Format profile : High@L4.1
    Format settings, CABAC : Yes
    Format settings, ReFrames : 4 frames
    Codec ID : V_MPEG4/ISO/AVC
    Duration : 1h 47mn
    Bit rate : 18.6 Mbps
    Width : 1 920 pixels
    Height : 1 040 pixels
    Display aspect ratio : 1.85:1
    Frame rate mode : Constant
    Frame rate : 23.976 fps
    Color space : YUV
    Chroma subsampling : 4:2:0
    Bit depth : 8 bits
    Scan type : Progressive
    Bits/(Pixel*Frame) : 0.388
    Stream size : 14.0 GiB (79%)
    Title : Machete Kills 2013 UK Transfer BDRip 1080p GORESEWAGE
    Writing library : x264 core 140 r2377 40 929f149 tMod 8-bit@4:2:0 X86_64
    Encoding settings : cabac=1 / ref=4 / deblock=1:-2:-2 / analyse=0x3:0x113 / me=umh / subme=11 / psy=1 / fade_compensate=0.00 / psy_rd=1.00:0.00 / mixed_ref=1 / me_range=48 / chroma_me=1 / trellis=2 / 8x8dct=1 / cqm=0 / deadzone=21,11 / fast_pskip=1 / chroma_qp_offset=-2 / threads=12 / lookahead_threads=2 / sliced_threads=0 / nr=0 / decimate=1 / interlaced=0 / bluray_compat=0 / constrained_intra=0 / fgo=0 / bframes=8 / b_pyramid=2 / b_adapt=2 / b_bias=0 / direct=3 / weightb=1 / open_gop=0 / weightp=2 / keyint=250 / keyint_min=23 / scenecut=40 / intra_refresh=0 / rc_lookahead=60 / rc=crf / mbtree=0 / crf=18.0000 / qcomp=0.60 / qpmin=0:0:0 / qpmax=69:69:69 / qpstep=4 / vbv_maxrate=62500 / vbv_bufsize=78125 / crf_max=0.0 / nal_hrd=none / filler=0 / ip_ratio=1.40 / pb_ratio=1.30 / aq=4:0.80 / aq-sensitivity=11.00 / aq-factor=1.00:1.00:1.00 / aq2=1:0.60 / aq2-sensitivity=9.00 / aq2-factor=1.00:1.00:1.00 / aq3=1:0.60:0.60:0.60:0.60:0.60:0.60:0.60:0.60 / aq3-sensitivity=10.00 / aq3-factor=1.00:1.00:1.00:1.00:1.00:1.00 / aq3-boundary=192:64:24
    Language : English
    Default : Yes
    Forced : No
    Color primaries : BT.709
    Transfer characteristics : BT.709
    Matrix coefficients : BT.709
    Audio #2
    ID : 2
    Format : DTS
    Format/Info : Digital Theater Systems
    Mode : 16
    Format settings, Endianness : Big
    Codec ID : A_DTS
    Duration : 1h 47mn
    Bit rate mode : Constant
    Bit rate : 1 510 Kbps
    Channel count : 6 channels
    Channel positions : Front: L C R, Side: L R, LFE
    Sampling rate : 48.0 KHz
    Bit depth : 24 bits
    Compression mode : Lossy
    Stream size : 1.13 GiB (6%)
    Title : Dub BD Rus
    Language : Russian
    Default : Yes
    Forced : No
    Audio #3
    ID : 3
    Format : DTS
    Format/Info : Digital Theater Systems
    Mode : 16
    Format settings, Endianness : Big
    Codec ID : A_DTS
    Duration : 1h 47mn
    Bit rate mode : Constant
    Bit rate : 1 509 Kbps
    Channel count : 6 channels
    Channel positions : Front: L C R, Side: L R, LFE
    Sampling rate : 48.0 KHz
    Bit depth : 24 bits
    Compression mode : Lossy
    Stream size : 1.13 GiB (6%)
    Title : VO Дмитрий Есарев
    Language : Russian
    Default : No
    Forced : No
    Audio #4
    ID : 4
    Format : DTS
    Format/Info : Digital Theater Systems
    Mode : 16
    Format settings, Endianness : Big
    Codec ID : A_DTS
    Duration : 1h 47mn
    Bit rate mode : Constant
    Bit rate : 1 509 Kbps
    Channel count : 6 channels
    Channel positions : Front: L C R, Side: L R, LFE
    Sampling rate : 48.0 KHz
    Bit depth : 24 bits
    Compression mode : Lossy
    Stream size : 1.13 GiB (6%)
    Title : Original
    Language : English
    Default : No
    Forced : No
    Text #5
    ID : 5
    Format : UTF-8
    Codec ID : S_TEXT/UTF8
    Codec ID/Info : UTF-8 Plain Text
    Title : Full
    Language : English
    Default : No
    Forced : No
    Text #6
    ID : 6
    Format : UTF-8
    Codec ID : S_TEXT/UTF8
    Codec ID/Info : UTF-8 Plain Text
    Title : SDH
    Language : English
    Default : No
    Forced : No
    Menu
    00:00:00.000 : en:Chapter 1
    00:10:09.775 : en:Chapter 2
    00:19:04.685 : en:Chapter 3
    00:25:02.501 : en:Chapter 4
    00:36:34.358 : en:Chapter 5
    00:45:12.209 : en:Chapter 6
    00:52:01.326 : en:Chapter 7
    00:58:06.900 : en:Chapter 8
    01:01:45.243 : en:Chapter 9
    01:11:34.039 : en:Chapter 10
    01:20:11.640 : en:Chapter 11
    01:26:57.462 : en:Chapter 12

    AddInfo

    * За дорогу №2 thx Дмитрий Есарев dikii, kidman644, Dezertir168, mihey10, ZeDOK, будулайроманов. Работа со звуком: Perevodman. Оптимизация к UK Transfer: Arifis.
    * Дорога №2 содержит ненормативную лексику!

    Размер скачиваемого торрента: 17.72 GB (19021421281 Bytes)

    Мачете убивает / Machete Kills (2013) BDRip 1080p от GORESEWAGE | UK Transfer скачать через торрент бесплатно
    загрузка...
    Рейтинг →
     (голосов: 1, оценка 5/5, голосовать можно 1 раз )

    Другие торренты по теме:

  • Мачете убивает / Machete Kills (2013) HD 720p | L1 торрент скачать бесплатно
  • Мачете убивает (2013) скачать через торрент бесплатно
  • OST - Мачете убивает / Machete Kills (2013) MP3 скачать через торрент бесплатно
  • Мачете убивает / Machete Kills (2013) HDTVRip 720p | Звук с TS торрент скачать бесплатно
  • Мачете убивает / Machete Kills (2013) HDTV 1080p | Звук с CAMRip торрент скачать бесплатно
  • Мачете убивает / Machete Kills (2013) HDTVRip | Звук с TS торрент скачать бесплатно
  • Мачете убивает / Machete Kills (2013) HDTVRip 720p | Чистый звук торрент скачать бесплатно
  • Мачете убивает / Machete Kills (2013) HDTVRip | Чистый звук торрент скачать бесплатно


    • Комментарии (0):

      Информация

      Информация

        Посетители, находящиеся в группе Гости, не могут оставлять комментарии в данной новости.

        ↓ Меню



        ↓ Опрос

        А Вы добавили сайт в закладки?
        Да
        Не


        Top 10 за неделю (Фильмы)