.
Авторизация | Регистрация
Хочешь лучшие торренты? Добавь свой email!
Добавить
» » Воровка книг / The Book Thief (2013) BDRip-AVC | iPhone | D скачать через торрент бесплатно




    Воровка книг / The Book Thief (2013) BDRip-AVC | iPhone | D скачать через торрент бесплатно

    Опубликовал: Админ | Дата: 27-02-2015, 11:10 | Просмотров: 329



    Воровка книг / The Book Thief (2013) BDRip-AVC | iPhone | D

    Русское название: Воровка книг
    Русское название в мировом прокате: The Book Thief
    Создали в: 2013
    Категория жанра: драма, военный
    Главный режиссер: Брайан Персивал
    Актеры: Софи Нелисс, Джеффри Раш, Эмили Уотсон, Бен Шнетцер, Нико Лирш, Роджер Аллам, Барбара Ауэр, Карина Визе, Оливер Стоковски, Райнер Бок

    Сюжет фильма:
    Фильм снят по мотивам романа Маркуса Зуcака Книжный Вор
    Германия, начало 1939 года, канун Второй мировой войны. Смерть готовится начать свою жатву. Девятилетняя Лизель переезжает в Мюнхен к своим приемным родителям и с их помощью учится читать. С каждым днем чтение становится ее жизненной потребностью, и Лизель начинает воровать книги — единственную отраду ее жизни. Все, что она узнает из них, помогает ей понять события, происходящие вокруг нее — гонение на евреев, антифашистское движение, унижения и голод. Все это, в конце концов, сложится в ее собственную историю, историю ее жизни.



    Снималось в: США, Германия
    Киностудия: Fox 2000 Pictures, Studio Babelsberg
    Время просмотра: 02:11:00
    Перевод текста: Русский дублированный


    Файл
    Кодек для видео: H.264
    Качество фильма: BDRip-AVC 480p | iPhone
    Информация о видео: 640x356@852x356 (2.40:1) at 23.976 fps, AVC at 1700 kbps
    Информация о звуке:
    1: ААС 2.0 129 kbps - Русский дублированный
    2: ААС 2.0 129 kbps - Английский
    Субтитры: Отсутствуют

    MI

    General
    Complete name : C:CREATE480outThe Book Thief.2013.m4v
    Format : MPEG-4
    Codec ID : M4V
    File size : 1.79 GiB
    Duration : 2h 11mn
    Overall bit rate mode : Variable
    Overall bit rate : 1 957 Kbps
    Movie name : Воровка книг
    Performer : Brian Percival
    Genre : Drama
    Recorded date : UTC 2013-11-08 08:00:00
    Encoded date : UTC 2014-03-02 06:04:49
    Tagged date : UTC 2014-03-02 06:15:09
    Copyright : Fox 2000 Pictures, Studio Babelsberg
    Cover : Yes
    Comment : Отвага без лишних слов
    sonm : The Book Thief
    desc : Германия, начало 1939 года, канун Второй мировой войны. Смерть готовится начать свою жатву. Девятилетняя Лизель переезжает в Мюнхен к своим приемным родителям и с их помощью учится читать. С каждым днем чтение становится ее жизненной потребностью...
    ldes : Германия, начало 1939 года, канун Второй мировой войны. Смерть готовится начать свою жатву. Девятилетняя Лизель переезжает в Мюнхен к своим приемным родителям и с их помощью учится читать. С каждым днем чтение становится ее жизненной потребностью, и Лизель начинает воровать книги — единственную отраду ее жизни. Все, что она узнает из них, помогает ей понять события, происходящие вокруг нее — гонение на евреев, антифашистское движение, унижения и голод. Все это, в конце концов, сложится в ее собственную историю, историю ее жизни.
    stik : 9
    rtng : 0
    cnID : 738247072
    xid : Apple:vendor_id:2013-757898
    iTunEXTC : mpaa|PG-13|300|

    Video #1
    ID : 1
    Format : AVC
    Format/Info : Advanced Video Codec
    Format profile : Baseline@L3.0
    Format settings, CABAC : No
    Format settings, ReFrames : 2 frames
    Codec ID : avc1
    Codec ID/Info : Advanced Video Coding
    Duration : 2h 10mn
    Bit rate : 1 700 Kbps
    Maximum bit rate : 7 900 Kbps
    Width : 640 pixels
    Height : 356 pixels
    Display aspect ratio : 2.40:1
    Frame rate mode : Constant
    Frame rate : 23.976 fps
    Color space : YUV
    Chroma subsampling : 4:2:0
    Bit depth : 8 bits
    Scan type : Progressive
    Bits/(Pixel*Frame) : 0.311
    Stream size : 1.55 GiB (87%)
    Writing library : x264 core 140 r2377 40 929f149 tMod 8-bit@4:2:0 X86_64
    Encoding settings : cabac=0 / ref=2 / deblock=1:-2:-2 / analyse=0x1:0x131 / me=umh / subme=7 / psy=1 / fade_compensate=1.00 / psy_rd=1.00:0.05 / mixed_ref=1 / me_range=48 / chroma_me=1 / trellis=2 / 8x8dct=0 / cqm=0 / deadzone=21,11 / fast_pskip=0 / chroma_qp_offset=-3 / threads=12 / lookahead_threads=2 / sliced_threads=0 / nr=0 / decimate=0 / interlaced=0 / bluray_compat=0 / constrained_intra=0 / fgo=0 / bframes=0 / weightp=0 / keyint=250 / keyint_min=23 / scenecut=40 / intra_refresh=0 / rc_lookahead=120 / rc=2pass / mbtree=1 / bitrate=1700 / ratetol=1.0 / qcomp=0.70 / qpmin=0:0:0 / qpmax=69:69:69 / qpstep=4 / cplxblur=20.0 / qblur=0.5 / vbv_maxrate=5000 / vbv_bufsize=5000 / nal_hrd=none / filler=0 / ip_ratio=1.40 / aq=4:0.90 / aq-sensitivity=10.00 / aq-factor=1.00:1.00:1.00 / aq2=0 / aq3=0
    Language : English
    Encoded date : UTC 2014-03-02 06:04:49
    Tagged date : UTC 2014-03-02 06:05:36
    Matrix coefficients : BT.709

    Video #2
    ID : 5
    Format : JPEG
    Codec ID : jpeg
    Duration : 2h 10mn
    Duration_LastFrame : -9mn 0s
    Bit rate mode : Variable
    Bit rate : 655 bps
    Width : 640 pixels
    Height : 267 pixels
    Display aspect ratio : 2.40:1
    Frame rate mode : Constant
    Frame rate : 0.002 fps
    Color space : YUV
    Chroma subsampling : 4:2:0
    Bit depth : 8 bits
    Compression mode : Lossy
    Bits/(Pixel*Frame) : 1.917
    Stream size : 560 KiB (0%)
    Language : English
    Encoded date : UTC 2014-03-02 06:14:59
    Tagged date : UTC 2014-03-02 06:14:59

    Audio #1
    ID : 2
    Format : AAC
    Format/Info : Advanced Audio Codec
    Format profile : LC
    Codec ID : 40
    Duration : 2h 11mn
    Bit rate mode : Variable
    Bit rate : 126 Kbps
    Maximum bit rate : 164 Kbps
    Channel(s) : 2 channels
    Channel positions : Front: L R
    Sampling rate : 48.0 KHz
    Compression mode : Lossy
    Stream size : 118 MiB (6%)
    Title : Dub
    Language : Russian
    Encoded date : UTC 2014-03-02 06:05:23
    Tagged date : UTC 2014-03-02 06:05:36

    Audio #2
    ID : 3
    Format : AAC
    Format/Info : Advanced Audio Codec
    Format profile : LC
    Codec ID : 40
    Duration : 2h 10mn
    Bit rate mode : Variable
    Bit rate : 124 Kbps
    Maximum bit rate : 165 Kbps
    Channel(s) : 2 channels
    Channel positions : Front: L R
    Sampling rate : 48.0 KHz
    Compression mode : Lossy
    Stream size : 117 MiB (6%)
    Title : Original
    Language : English
    Encoded date : UTC 2014-03-02 06:05:29
    Tagged date : UTC 2014-03-02 06:05:36

    Menu #1
    00:00:00.000 : Chapter 1
    00:10:00.000 : Chapter 2
    00:20:00.000 : Chapter 3
    00:30:00.000 : Chapter 4
    00:40:00.000 : Chapter 5
    00:50:00.000 : Chapter 6
    01:00:00.000 : Chapter 7
    01:10:00.000 : Chapter 8
    01:20:00.000 : Chapter 9
    01:30:00.000 : Chapter 10
    01:40:00.000 : Chapter 11
    01:50:00.000 : Chapter 12
    02:00:00.000 : Chapter 13
    02:10:00.000 : Chapter 14

    Menu #2
    ID : 4
    Codec ID : text
    Duration : 2h 10mn
    Language : English
    Encoded date : UTC 2014-03-02 06:14:55
    Tagged date : UTC 2014-03-02 06:14:55
    Bit rate mode : VBR
    Duration_LastFrame : -540023

    iTunes Meta Tags

    Sort Name: The Book Thief
    XID: Apple:vendor_id:2013-757898
    contentID: 738247072
    Copyright: Fox 2000 Pictures, Studio Babelsberg
    Screenwriters: Маркус Зусак, Майкл Петрони
    Producers: Кен Бланкато, Редмонд Моррис, Карен Розенфельт
    Director: Брайан Персивал
    Cast: Софи Нелисс, Джеффри Раш, Эмили Уотсон, Бен Шнетцер, Нико Лирш, Роджер Аллам, Барбара Ауэр, Карина Визе, Оливер Стоковски, Райнер Бок // Roger Allam (Narrator / Death), Sophie N?lisse (Liesel Meminger), Geoffrey Rush (Hans Hubermann), Emily Watson (Rosa Hubermann), Ben Schnetzer (Max Vandenburg), Nico Liersch (Rudy Steiner), Joachim Paul Assb?ck (SS Officer), Sandra Nedeleff (Sarah), Kirsten Block (Frau Heinrich), Joachim Paul Assb?ck (SS Officer), Matthias Matschke (Wolfgang Edel), Nozomi Linus Kaisar (Fat Faced Goalie), Oliver Stokowski (Alex Steiner), Robert Beyer (Jewish Accountant), Barbara Auer (Ilsa Hermann), Heike Makatsch (Liesel;s mother)
    Studio: Fox 2000 Pictures, Studio Babelsberg
    Rating: 4
    Long Deion: Германия, начало 1939 года, канун Второй мировой войны. Смерть готовится начать свою жатву. Девятилетняя Лизель переезжает в Мюнхен к своим приемным родителям и с их помощью учится читать. С каждым днем чтение становится ее жизненной потребностью, и Лизель начинает воровать книги — единственную отраду ее жизни. Все, что она узнает из них, помогает ей понять события, происходящие вокруг нее — гонение на евреев, антифашистское движение, унижения и голод. Все это, в конце концов, сложится в ее собственную историю, историю ее жизни.
    Deion: Германия, начало 1939 года, канун Второй мировой войны. Смерть готовится начать свою жатву. Девятилетняя Лизель переезжает в Мюнхен к своим приемным родителям и с их помощью учится читать. С каждым днем чтение становится ее жизненной потребностью...
    Release Date: 2013-11-08T08:00:00Z
    Genre: Drama
    Comments: Отвага без лишних слов
    Artist: Brian Percival
    Name: Воровка книг
    x264

    x264 info: frame I:1466 Avg QP:18.18 size: 29048
    x264 info: frame P:123162 Avg QP:20.61 size: 8611
    x264 info: mb I I16..4: 35.1% 0.0% 64.9%
    x264 info: mb P I16..4: 1.5% 0.0% 2.0% P16..4: 47.8% 14.8% 8.5% 1.9% 0.9% skip:22.6%
    x264 info: coded y,uvDC,uvAC intra: 53.4% 69.0% 46.8% inter: 36.9% 33.3% 21.2%
    x264 info: i16 v,h,dc,p: 56% 13% 7% 24%
    x264 info: i4 v,h,dc,ddl,ddr,vr,hd,vl,hu: 42% 13% 11% 5% 6% 8% 5% 6% 4%
    x264 info: i8c dc,h,v,p: 51% 14% 28% 7%
    x264 info: ref P L0: 77.1% 22.9%
    x264 info: kb/s:1698.94




    Залил: gekka
    Размер скачиваемого торрента: 1.79 GB (1923079036 Bytes)

    Воровка книг / The Book Thief (2013) BDRip-AVC | iPhone | D скачать через торрент бесплатно
    загрузка...
    Рейтинг →
     (голосов: 1, оценка 4/5, голосовать можно 1 раз )

    Другие торренты по теме:

  • OST - Воровка книг / The Book Thief (2013) MP3
  • Воровка книг / The Book Thief (2013) DVDScr | Звук с TS скачать через торрент бесплатно
  • Воровка книг / The Book Thief (2013) DVDScr | L1
  • Воровка книг / The Book Thief (2013) WEB-DLRip | Звук с TS
  • Воровка книг / The Book Thief (2013) BDRip-AVC от MediaClub | Лицензия скачать через торрент бесплатно
  • Воровка книг / The Book Thief (2013) BDRip 720p | Лицензия скачать через торрент бесплатно
  • Воровка книг / The Book Thief (2013) BDRemux 1080p | Лицензия скачать через торрент бесплатно
  • Воровка книг / The Book Thief (2013) BDRip 1080p | Лицензия скачать через торрент бесплатно


    • Комментарии (0):

      Информация

      Информация

        Посетители, находящиеся в группе Гости, не могут оставлять комментарии в данной новости.

        ↓ Меню



        ↓ Опрос

        А Вы добавили сайт в закладки?
        Да
        Не


        Top 10 за месяц (Фильмы)