.
Авторизация | Регистрация
Хочешь лучшие торренты? Добавь свой email!
Добавить
» » Мачете убивает / Machete Kills (2013) BDRip 720p от GORESEWAGE | US Transfer скачать через торрент бесплатно




    Мачете убивает / Machete Kills (2013) BDRip 720p от GORESEWAGE | US Transfer скачать через торрент бесплатно

    Опубликовал: Админ | Дата: 27-02-2015, 11:10 | Просмотров: 269



    Мачете убивает / Machete Kills

    Создали в: 2013
    Снималось в: США, Россия
    Категория жанра: боевик, комедия, криминал
    Время просмотра: 01:48:01
    Перевод текста 1: Профессиональный (дублированный) BD Rus
    Перевод текста 2: Любительский (одноголосый закадровый) Дмитрий Есарев
    Оригинальная аудиодорожка: English
    Субтитры: English (Full, SDH)
    Киностудия: AR Films, Aldamisa Entertainment, 1821 Pictures, Quick Draw Productions, Demarest Films, Overnight Films

    Главный режиссёр: Роберт Родригес / Robert Rodriguez

    Актеры: Дэнни Трехо, Эмбер Хёрд, София Вергара, Джессика Альба, Ванесса Энн Хадженс, Калли Эрнандес, Демиан Бишир, Мэл Гибсон, Чарли Шин, Леди Гага, Алекса ПенаВега, Антонио Бандерас, Кьюба Гудинг мл., Мишель Родригес, Том Савини и др.

    Сюжет: Правительство США вербует Мачете для миссии, которую не под силу выполнить простому смертному. Мачете прорывается в Мексику, чтобы схватить безумного лидера карательного отряда и эксцентричного миллиардера, торгующего оружием, который, в свою очередь, лелеет мечту начать войну планетарного масштаба и запустить смертельно опасное оружие в космос. И только Мачете может предотвратить этот глобальный хаос.



    Sample

    Качество фильма: BDRip 720p (CRiSC)
    Контейнер: MKV
    Информация о видео кодек: MPEG-4 AVC Video
    Информация о звуке кодек: DTS
    Информация о видео: MPEG-4 AVC Video / 7379 kbps / 1280x694p / 23,976 fps / 1.85:1 / High Profile 4.1
    Информация о звуке 1: Russian / DTS / 5.1 / 48 kHz / 1536 kbps / 24-bit | Dub BD Rus
    Информация о звуке 2: Russian / DTS / 5.1 / 48 kHz / 1536 kbps / 24-bit | VO Дмитрий Есарев
    Информация о звуке 3: English / DTS / 5.1 / 48 kHz / 1536 kbps / 24-bit | Original
    Навигация по главам: да

    Screens

    MediaInfo
    C:/GORESEWAGE/Machete Kills 2013 BDRip 720p GORESEWAGE.mkv
    General
    Unique ID : 179548126956106617074542864496401159977 (0x8713B61F619D0D44892536F099B19729)
    Complete name : C:/GORESEWAGE/Machete Kills 2013 BDRip 720p GORESEWAGE.mkv
    Format : Matroska
    Format version : Version 4 / Version 2
    File size : 9.17 GiB
    Duration : 1h 48mn
    Overall bit rate : 12.1 Mbps
    Movie name : Machete Kills 2013 BDRip 720p GORESEWAGE
    Encoded date : UTC 2014-03-01 18:24:06
    Writing application : mkvmerge v6.1.0 (;Old Devil;) built on Mar 2 2013 14:32:37
    Writing library : libebml v1.3.0 libmatroska v1.4.0
    Attachment : Yes
    Video #1
    ID : 1
    Format : AVC
    Format/Info : Advanced Video Codec
    Format profile : High@L4.1
    Format settings, CABAC : Yes
    Format settings, ReFrames : 9 frames
    Codec ID : V_MPEG4/ISO/AVC
    Duration : 1h 48mn
    Bit rate : 7 379 Kbps
    Width : 1 280 pixels
    Height : 694 pixels
    Display aspect ratio : 1.85:1
    Frame rate mode : Constant
    Frame rate : 23.976 fps
    Color space : YUV
    Chroma subsampling : 4:2:0
    Bit depth : 8 bits
    Scan type : Progressive
    Bits/(Pixel*Frame) : 0.346
    Stream size : 5.57 GiB (61%)
    Title : Machete Kills 2013 BDRip 720p GORESEWAGE
    Writing library : x264 core 140 r2377kMod 1ca7bb9
    Encoding settings : cabac=1 / ref=9 / deblock=1:-3:-3 / analyse=0x3:0x133 / me=tesa / subme=11 / psy=1 / fade_compensate=0.00 / psy_rd=1.00:0.00 / mixed_ref=1 / me_range=24 / chroma_me=1 / trellis=2 / 8x8dct=1 / cqm=0 / deadzone=21,11 / fast_pskip=0 / chroma_qp_offset=-2 / threads=12 / lookahead_threads=2 / sliced_threads=0 / nr=0 / decimate=0 / interlaced=0 / bluray_compat=0 / constrained_intra=0 / fgo=0 / bframes=8 / b_pyramid=2 / b_adapt=2 / b_bias=0 / direct=3 / weightb=1 / open_gop=0 / weightp=2 / keyint=250 / keyint_min=23 / scenecut=40 / intra_refresh=0 / rc_lookahead=40 / rc=crf / mbtree=0 / crf=17.0000 / qcomp=0.70 / qpmin=0 / qpmax=69 / qpstep=4 / vbv_maxrate=50000 / vbv_bufsize=62500 / crf_max=0.0 / nal_hrd=none / filler=0 / ip_ratio=1.40 / pb_ratio=1.30 / aq=1:0.80
    Language : English
    Default : Yes
    Forced : No
    Color primaries : BT.709
    Transfer characteristics : BT.709
    Matrix coefficients : BT.709
    Audio #2
    ID : 2
    Format : DTS
    Format/Info : Digital Theater Systems
    Mode : 16
    Format settings, Endianness : Big
    Codec ID : A_DTS
    Duration : 1h 48mn
    Bit rate mode : Constant
    Bit rate : 1 509 Kbps
    Channel count : 6 channels
    Channel positions : Front: L C R, Side: L R, LFE
    Sampling rate : 48.0 KHz
    Bit depth : 16 bits
    Compression mode : Lossy
    Stream size : 1.14 GiB (12%)
    Title : Dub BD Rus
    Language : Russian
    Default : Yes
    Forced : No
    Audio #3
    ID : 3
    Format : DTS
    Format/Info : Digital Theater Systems
    Mode : 16
    Format settings, Endianness : Big
    Codec ID : A_DTS
    Duration : 1h 48mn
    Bit rate mode : Constant
    Bit rate : 1 509 Kbps
    Channel count : 6 channels
    Channel positions : Front: L C R, Side: L R, LFE
    Sampling rate : 48.0 KHz
    Bit depth : 24 bits
    Compression mode : Lossy
    Stream size : 1.14 GiB (12%)
    Title : VO Дмитрий Есарев
    Language : Russian
    Default : No
    Forced : No
    Audio #4
    ID : 4
    Format : DTS
    Format/Info : Digital Theater Systems
    Mode : 16
    Format settings, Endianness : Big
    Codec ID : A_DTS
    Duration : 1h 48mn
    Bit rate mode : Constant
    Bit rate : 1 509 Kbps
    Channel count : 6 channels
    Channel positions : Front: L C R, Side: L R, LFE
    Sampling rate : 48.0 KHz
    Bit depth : 24 bits
    Compression mode : Lossy
    Stream size : 1.14 GiB (12%)
    Title : Original
    Language : English
    Default : No
    Forced : No
    Text #5
    ID : 5
    Format : UTF-8
    Codec ID : S_TEXT/UTF8
    Codec ID/Info : UTF-8 Plain Text
    Title : Full
    Language : English
    Default : No
    Forced : No
    Text #6
    ID : 6
    Format : UTF-8
    Codec ID : S_TEXT/UTF8
    Codec ID/Info : UTF-8 Plain Text
    Title : SDH
    Language : English
    Default : No
    Forced : No
    Menu
    00:00:00.000 : en:00:00:00.000
    00:07:48.760 : en:00:07:48.760
    00:12:12.398 : en:00:12:12.398
    00:19:27.583 : en:00:19:27.583
    00:25:25.399 : en:00:25:25.399
    00:30:35.959 : en:00:30:35.959
    00:34:15.345 : en:00:34:15.345
    00:39:33.121 : en:00:39:33.121
    00:45:35.107 : en:00:45:35.107
    00:50:30.236 : en:00:50:30.236
    00:55:07.429 : en:00:55:07.429
    00:59:08.295 : en:00:59:08.295
    01:06:55.929 : en:01:06:55.929
    01:11:56.938 : en:01:11:56.938
    01:16:38.177 : en:01:16:38.177
    01:20:34.538 : en:01:20:34.538
    01:25:08.812 : en:01:25:08.812
    01:30:13.158 : en:01:30:13.158
    01:37:43.483 : en:01:37:43.483
    01:41:54.233 : en:01:41:54.233

    AddInfo

    * За дорогу №2 thx Дмитрий Есарев dikii, kidman644, Dezertir168, mihey10, ZeDOK, будулайроманов. Работа со звуком: Perevodman.
    * Дорога №2 содержит ненормативную лексику!

    Размер скачиваемого торрента: 9.17 GB (9841699563 Bytes)

    Мачете убивает / Machete Kills (2013) BDRip 720p от GORESEWAGE | US Transfer скачать через торрент бесплатно
    загрузка...
    Рейтинг →
     (голосов: 1, оценка 4/5, голосовать можно 1 раз )

    Другие торренты по теме:

  • Мачете убивает / Machete Kills (2013) HD 720p | L1
  • Мачете убивает (2013) скачать через торрент бесплатно
  • OST - Мачете убивает / Machete Kills (2013) MP3 скачать через торрент бесплатно
  • Мачете убивает / Machete Kills (2013) HDTVRip 720p | Звук с TS
  • Мачете убивает / Machete Kills (2013) HDTV 1080p | Звук с CAMRip
  • Мачете убивает / Machete Kills (2013) HDTVRip | Звук с TS
  • Мачете убивает / Machete Kills (2013) HDTVRip 720p | Чистый звук
  • Мачете убивает / Machete Kills (2013) HDTVRip | Чистый звук


    • Комментарии (0):

      Информация

      Информация

        Посетители, находящиеся в группе Гости, не могут оставлять комментарии в данной новости.

        ↓ Меню



        ↓ Опрос

        А Вы добавили сайт в закладки?
        Да
        Не


        Top 10 за месяц (Фильмы)