.
Авторизация | Регистрация
» » Космоломы / Спорт рок / Rock Jocks (2012) WEB-DL 720p от CINEMANIA | L1 торрент скачать бесплатно




    Космоломы / Спорт рок / Rock Jocks (2012) WEB-DL 720p от CINEMANIA | L1 торрент скачать бесплатно

    Опубликовал: Админ | Дата: 27-02-2015, 11:10 | Просмотров: 241



    Детально о кино
    Русское название: Космоломы / Спорт рок
    Русское название в мировом прокате: Rock Jocks
    Создали в: 2012
    Категория жанра: фантастика, комедия
    Главный режиссер: Пол В. Сетачит
    Актеры: Эндрю Бауэн, Фелиша Дэй, Джерри Бедноб, Грег Бенсон, Сэт Лукас Боуэн, Юджин Бирд, Зак Каллисон, Джастин Чон, Майкл Клэр, Джеймс ДюМонт

    Сюжет фильма:
    Группа нерадивых госслужащих из спецотряда Космоломы занимается предотвращением космической угрозы Земле, сбивая приближающиеся астероиды. А тем временем чинуши из бюджетного комитета с целью сократить расходы на эту программу, планируют заменить людей передовой автоматической системой. Судьбу отряда должна решить проверка их профпригодности. Но именно в это время к Земле приближается гигантский астероид, способный уичтожить всё живое на Планете.



    Снималось в: США
    Время просмотра: 01:31:06
    Тип перевода: Любительское (одноголосое) den904
    перевод на русский язык Antonio

    Файл
    Тип видео: MKV
    Качество фильма: WEB-DL 720p HD4FUN
    Информация о видео: 3796 kb/s, 1280x718
    Информация о звуке: Russian: AC3, 192 kb/s (2 ch) / English: AC3, 384 kb/s (6 ch)
    Субтитры: English
    Дополнительно: Сохранены оригинальные чаптеры как на Blu-ray
    Размер скачиваемого торрента: 2.84 GB
    Скачать: Сэмпл

    Релиз группы:



    NFO
    Общее
    Rock.Jocks.2012.WEB-DL.720p.CINEMANIA.mkv
    Формат : Matroska
    Версия формата : Version 4 / Version 2
    Размер файла : 2,84 Гбайт
    Продолжительность : 1 ч. 31 м.
    Общий поток : 4461 Кбит/сек
    Название фильма : Release Group CINEMANIA
    Дата кодирования : UTC 2014-03-03 21:16:02
    Программа кодирования : mkvmerge v6.7.0 (;Back to the Ground;) 64bit built on Jan 8 2014 15:10:52
    Библиотека кодирования : libebml v1.3.0 libmatroska v1.4.1

    Видео
    Идентификатор : 1
    Формат : AVC
    Формат/Информация : Advanced Video Codec
    Профиль формата : High@L3.1
    Параметр CABAC формата : Нет
    Параметр ReFrames формата : 2 кадра
    Идентификатор кодека : V_MPEG4/ISO/AVC
    Продолжительность : 1 ч. 31 м.
    Битрейт : 3796 Кбит/сек
    Ширина : 1280 пикселей
    Высота : 718 пикселей
    Соотношение сторон : 16:9
    Режим частоты кадров : Постоянный
    Частота кадров : 23,976 кадра/сек
    Цветовое пространство : YUV
    Субдискретизация насыщенности : 4:2:0
    Битовая глубина : 8 бит
    Тип развёртки : Прогрессивная
    Бит/(Пиксели*Кадры) : 0.172
    Размер потока : 2,42 Гбайт (85%)
    Заголовок : Release Group CINEMANIA
    Язык : English
    Default : Да
    Forced : Нет
    Основные цвета : BT.709
    Характеристики трансфера : BT.709
    Коэффициенты матрицы : BT.709

    Аудио #1
    Идентификатор : 2
    Формат : AC-3
    Формат/Информация : Audio Coding 3
    Расширение режима : CM (complete main)
    Параметр Endianness формата : Big
    Идентификатор кодека : A_AC3
    Продолжительность : 1 ч. 31 м.
    Вид битрейта : Постоянный
    Битрейт : 192 Кбит/сек
    Каналы : 2 канала
    Расположение каналов : Front: L R
    Частота : 48,0 КГц
    Битовая глубина : 16 бит
    Метод сжатия : С потерями
    Размер потока : 125 Мбайт (4%)
    Заголовок : den904
    Язык : Russian
    Default : Да
    Forced : Да

    Аудио #2
    Идентификатор : 3
    Формат : AC-3
    Формат/Информация : Audio Coding 3
    Расширение режима : CM (complete main)
    Параметр Endianness формата : Big
    Идентификатор кодека : A_AC3
    Продолжительность : 1 ч. 31 м.
    Вид битрейта : Постоянный
    Битрейт : 384 Кбит/сек
    Каналы : 6 каналов
    Расположение каналов : Front: L C R, Side: L R, LFE
    Частота : 48,0 КГц
    Битовая глубина : 16 бит
    Метод сжатия : С потерями
    Размер потока : 250 Мбайт (9%)
    Язык : English
    Default : Нет
    Forced : Нет

    Текст
    Идентификатор : 4
    Формат : UTF-8
    Идентификатор кодека : S_TEXT/UTF8
    Идентификатор кодека/Информация : UTF-8 Plain Text
    Язык : English
    Default : Нет
    Forced : Нет

    Меню
    00:00:00.000 : en:Called In
    00:08:10.000 : en:AMI
    00:13:02.000 : en:Slow Clap
    00:21:18.000 : en:Smoking Jesus
    00:27:48.000 : en:Spoof
    00:33:12.000 : en:Fives All Around
    00:40:59.000 : en:Condition Yellow
    00:51:47.000 : en:Facing Your Enemies
    00:56:58.000 : en:No-win Scenario
    01:05:53.000 : en:Just One Bad Day
    01:13:08.000 : en:Balrog and an Ogre
    01:22:17.000 : en:Maybe Next Time
    01:27:05.000 : en:Credits

    Залил: DGEKIGAN
    Размер скачиваемого торрента: 2.84 GB (3047920159 Bytes)

    Космоломы / Спорт рок / Rock Jocks (2012) WEB-DL 720p от CINEMANIA | L1 торрент скачать бесплатно
    загрузка...
    Рейтинг →
     (голосов: 1, оценка 5/5, голосовать можно 1 раз )

    Другие торренты по теме:

  • Космоломы / Спорт рок / Rock Jocks (2012) WEB-DLRip | L1 скачать через торрент бесплатно


    • Комментарии (0):

      Информация

      Информация

        Посетители, находящиеся в группе Гости, не могут оставлять комментарии в данной новости.

        ↓ Меню



        ↓ Опрос

        А Вы добавили сайт в закладки?
        Да
        Не


        Top 10 за неделю (Фильмы)