.
Авторизация | Регистрация
» » Пуля / Bullet (2014) BDRemux 1080p от NovaLan торрент скачать бесплатно




    Пуля / Bullet (2014) BDRemux 1080p от NovaLan торрент скачать бесплатно

    Опубликовал: Админ | Дата: 27-02-2015, 11:10 | Просмотров: 247



    Русское название: Пуля
    Русское название в мировом прокате: Bullet
    Создали в: 2014
    Категория жанра: Боевик, криминал
    Главный режиссер: Ник Лион
    Актеры: Дэнни Трехо, Торстен Фогс, Джонатан Бэнкс, Кайл Вильяловос, Ив Мауро, Шери ДеЯнг, Эрик Блоссом, Джералд Уэбб, Тинсел Кори, Эрик Этебари
    Сюжет фильма:
    Пуля - это прозвище бескомпромиссного и жестокого полицейского, для которого борьба с преступностью является смыслом его жизни. В один ужасный день мафия похищает его внука, сама того не понимая какие неприятности на себя навлекая. Пуля берет закон в свои руки и начинает вершить правосудие без суда и следствия.


    Снималось в: США, Giant Ape Media, SC Films International
    Время просмотра: 01:27:16
    Перевод текста: Профессиональный многоголосый / Любительский одноголосый (qwerty)

    Внимание! Присутствует ненормативная лексика!

    Кодек для видео: H.264
    Качество фильма: Blu-Ray Remux 1080p
    Информация о видео: MPEG-4 AVC, 20993 Кбит/с, 1920x1080, 23.976 кадр/с
    Информация о звуке: Русский (AC3, 6 ch, 384 Кбит/с), (AC3, 2 ch, 256 Кбит/с), английский (TrueHD, 6 ch, 4185 Кбит/с)
    Субтитры: Английские

    Инфо-файл

    Полное имя : E:Раздачи_EBullet.2014.BDRemux.1080p.NovaLan.mkv
    Формат : Matroska
    Версия формата : Version 4 / Version 2
    Размер файла : 14,7 Гбайт
    Продолжительность : 1 ч. 27 м.
    Режим общего битрейта : Переменный
    Общий поток : 24,1 Мбит/сек
    Название фильма : Bullet 2014 - NovaLan
    Дата кодирования : UTC 2014-03-03 18:26:47
    Программа кодирования : mkvmerge v6.7.0 (;Back to the Ground;) 64bit built on Jan 8 2014 15:10:52
    Библиотека кодирования : libebml v1.3.0 libmatroska v1.4.1

    Видео
    Идентификатор : 1
    Формат : AVC
    Формат/Информация : Advanced Video Codec
    Профиль формата : High@L4.1
    Параметр CABAC формата : Да
    Параметр ReFrames формата : 4 кадра
    Идентификатор кодека : V_MPEG4/ISO/AVC
    Продолжительность : 1 ч. 27 м.
    Вид битрейта : Переменный
    Максимальный битрейт : 39,5 Мбит/сек
    Ширина : 1920 пикселей
    Высота : 1080 пикселей
    Соотношение сторон : 16:9
    Частота кадров : 23,976 кадра/сек
    Цветовое пространство : YUV
    Субдискретизация насыщенности : 4:2:0
    Битовая глубина : 8 бит
    Тип развёртки : Прогрессивная
    Заголовок : Bullet 2014 - NovaLan
    Default : Да
    Forced : Нет

    Аудио #1
    Идентификатор : 2
    Формат : AC-3
    Формат/Информация : Audio Coding 3
    Расширение режима : CM (complete main)
    Параметр Endianness формата : Big
    Идентификатор кодека : A_AC3
    Продолжительность : 1 ч. 27 м.
    Вид битрейта : Постоянный
    Битрейт : 384 Кбит/сек
    Каналы : 6 каналов
    Расположение каналов : Front: L C R, Side: L R, LFE
    Частота : 48,0 КГц
    Битовая глубина : 16 бит
    Метод сжатия : С потерями
    Размер потока : 240 Мбайт (2%)
    Язык : Russian
    Default : Да
    Forced : Нет

    Аудио #2
    Идентификатор : 3
    Формат : AC-3
    Формат/Информация : Audio Coding 3
    Расширение режима : CM (complete main)
    Параметр Endianness формата : Big
    Идентификатор кодека : A_AC3
    Продолжительность : 1 ч. 27 м.
    Вид битрейта : Постоянный
    Битрейт : 256 Кбит/сек
    Каналы : 2 канала
    Расположение каналов : Front: L R
    Частота : 48,0 КГц
    Битовая глубина : 16 бит
    Метод сжатия : С потерями
    Размер потока : 160 Мбайт (1%)
    Язык : Russian
    Default : Нет
    Forced : Нет

    Аудио #3
    Идентификатор : 4
    Формат : TrueHD
    Идентификатор кодека : A_TRUEHD
    Продолжительность : 1 ч. 27 м.
    Вид битрейта : Переменный
    Максимальный битрейт : 4185 Кбит/сек
    Каналы : 6 каналов
    Расположение каналов : Front: L C R, Side: L R, LFE
    Частота : 48,0 КГц
    Метод сжатия : Без потерь
    Язык : English
    Default : Нет
    Forced : Нет

    Текст
    Идентификатор : 5
    Формат : PGS
    Режим смешивания : zlib
    Идентификатор кодека : S_HDMV/PGS
    Идентификатор кодека/Информация : The same subtitle format used on BDs/HD-DVDs
    Язык : English
    Default : Нет
    Forced : Нет

    Меню
    00:00:00.000 : en:Chapter 1
    00:06:15.625 : en:Chapter 2
    00:11:31.524 : en:Chapter 3
    00:14:13.602 : en:Chapter 4
    00:17:44.646 : en:Chapter 5
    00:22:35.520 : en:Chapter 6
    00:27:37.656 : en:Chapter 7
    00:32:33.117 : en:Chapter 8
    00:38:37.148 : en:Chapter 9
    00:45:01.657 : en:Chapter 10
    00:50:12.092 : en:Chapter 11
    00:53:54.522 : en:Chapter 12
    00:58:18.453 : en:Chapter 13
    01:02:21.738 : en:Chapter 14
    01:06:54.135 : en:Chapter 15
    01:11:02.258 : en:Chapter 16
    01:15:43.664 : en:Chapter 17
    01:21:14.035 : en:Chapter 18
    01:27:16.356 : en:Chapter 19

    Релиз группа NovaLan
    Автор сборки Sergei7721




    Релиз подготовил:


    Залил: Sergei7721
    Размер скачиваемого торрента: 14.68 GB (15762336948 Bytes)

    Пуля / Bullet (2014) BDRemux 1080p от NovaLan торрент скачать бесплатно
    загрузка...
    Рейтинг →
     (голосов: 1, оценка 4/5, голосовать можно 1 раз )

    Другие торренты по теме:

  • Тэцуо 3: Человек-пуля / Tetsuo III: The Bullet Man (2009) BDRip | L1 торрент скачать бесплатно
  • Пуля исчезает / The Bullet Vanishes / Xiao shi de zi dan (2012) HDRip-AVC от BTT-TEAM и STEPonee торрент скачать бесплатно
  • Пуля для генерала / El chuncho, quien sabe (1966) BDRip-AVC от Rulya74 торрент скачать бесплатно
  • Ария Алая Пуля / Hidan no Aria (2011) HDRip от Torrent-Xzona | L1,L2 торрент скачать бесплатно
  • Пуля в рожу / Bullet in the face (2012) HDTVRip | L2 торрент скачать бесплатно
  • Шесть пуль / 6 Bullets (2012) BDRip-AVC от potroks | L2 торрент скачать бесплатно
  • Призрачные пули / The Bullet Vanishes (2012) BDRip | A торрент скачать бесплатно
  • Быстрее пули / Faster (2010) BDRip 1080p торрент скачать бесплатно


    • Комментарии (0):

      Информация

      Информация

        Посетители, находящиеся в группе Гости, не могут оставлять комментарии в данной новости.

        ↓ Меню



        ↓ Опрос

        А Вы добавили сайт в закладки?
        Да
        Не


        Top 10 за неделю (Фильмы)