.
Авторизация | Регистрация
Хочешь лучшие торренты? Добавь свой email!
Добавить
» » Фредди против Джейсона / Freddy vs. Jason (2003) BDRip-AVC | iPhone | D торрент скачать бесплатно




    Фредди против Джейсона / Freddy vs. Jason (2003) BDRip-AVC | iPhone | D торрент скачать бесплатно

    Опубликовал: Админ | Дата: 27-02-2015, 11:10 | Просмотров: 299



    Фредди против Джейсона / Freddy vs. Jason (2003) BDRip-AVC | iPhone | D

    Русское название: Фредди против Джейсона
    Русское название в мировом прокате: Freddy vs. Jason
    Создали в: 2003
    Категория жанра: ужасы, триллер
    Главный режиссер: Ронни Ю
    Актеры: Роберт Инглунд, Кен Кирзингер, Моника Кина, Джейсон Риттер, Келли Роулэнд, Крис Маркетт, Брендан Флетчер, Кэтрин Изабель, Локлин Манро, Кайл Лабайн

    Сюжет фильма:
    Фредди Крюгер доведен до отчаяния: он больше не может убивать. Лишь используя неуклюжего серийного убийцу Джейсона Вурхиса, Фредди удается истреблять детей с улицы Вязов. Но когда Джейсон начинает понимать, что им попросту манипулируют, планы Фредди готовы рухнуть. / Теперь дело за тинейджерами Уиллом, Лори и Кией. Каким-то образом им надо заставить Джейсона раз и навсегда убить Фредди Крюгера



    Снималось в: Канада, США, Италия
    Киностудия: Avery Pix, Cecchi Gori Group Tiger Cinematografica,New Line Cinema
    Время просмотра: 01:37:20
    Перевод текста: Русский дублированный


    Файл
    Кодек для видео: H.264
    Качество фильма: BDRip-AVC 480p | iPhone
    Информация о видео: 640x364@851x364 (2.35:1) at 23.976 fps, AVC at 1900 kbps
    Информация о звуке:
    1: ААС 2.0 129 kbps - Русский дублированный
    2: ААС 2.0 129 kbps - Английский
    Субтитры: Английские

    MI

    General
    Complete name : C:CREATE480outFreddy vs. Jason.2003 (SD).m4v
    Format : MPEG-4
    Codec ID : M4V
    File size : 1.48 GiB
    Duration : 1h 37mn
    Overall bit rate mode : Variable
    Overall bit rate : 2 180 Kbps
    Movie name : Фредди против Джейсона
    Performer : Ronny Yu
    Genre : Horror
    Recorded date : UTC 2003-08-13 08:00:00
    Encoded date : UTC 2014-03-03 17:13:49
    Tagged date : UTC 2014-03-03 17:48:43
    Copyright : Avery Pix, Cecchi Gori Group Tiger Cinematografica,New Line Cinema
    Cover : Yes
    Comment : One, two, Freddy;s coming for you... three, four, Jason;s at your door...
    sonm : Freddy vs. Jason
    desc : Фредди Крюгер доведен до отчаяния: он больше не может убивать. Лишь используя неуклюжего серийного убийцу Джейсона Вурхиса, Фредди удается истреблять детей с улицы Вязов.
    ldes : Фредди Крюгер доведен до отчаяния: он больше не может убивать. Лишь используя неуклюжего серийного убийцу Джейсона Вурхиса, Фредди удается истреблять детей с улицы Вязов. Но когда Джейсон начинает понимать, что им попросту манипулируют, планы Фредди готовы рухнуть. / Теперь дело за тинейджерами Уиллом, Лори и Кией. Каким-то образом им надо заставить Джейсона раз и навсегда убить Фредди Крюгера
    stik : 9
    rtng : 0
    cnID : 293421934
    xid : Apple:vendor_id:2003-8005
    iTunEXTC : mpaa|R|400|

    Video #1
    ID : 1
    Format : AVC
    Format/Info : Advanced Video Codec
    Format profile : Baseline@L3.0
    Format settings, CABAC : No
    Format settings, ReFrames : 2 frames
    Codec ID : avc1
    Codec ID/Info : Advanced Video Coding
    Duration : 1h 37mn
    Bit rate : 1 920 Kbps
    Maximum bit rate : 9 054 Kbps
    Width : 640 pixels
    Height : 364 pixels
    Display aspect ratio : 2.35:1
    Frame rate mode : Constant
    Frame rate : 23.976 fps
    Color space : YUV
    Chroma subsampling : 4:2:0
    Bit depth : 8 bits
    Scan type : Progressive
    Bits/(Pixel*Frame) : 0.344
    Stream size : 1.31 GiB (88%)
    Title : Freddy vs Jason _2003_
    Writing library : x264 core 140 r2377 40 929f149 tMod 8-bit@4:2:0 X86_64
    Encoding settings : cabac=0 / ref=2 / deblock=1:-2:-2 / analyse=0x1:0x131 / me=umh / subme=7 / psy=1 / fade_compensate=1.00 / psy_rd=1.00:0.15 / mixed_ref=1 / me_range=32 / chroma_me=1 / trellis=2 / 8x8dct=0 / cqm=0 / deadzone=21,11 / fast_pskip=0 / chroma_qp_offset=-3 / threads=12 / lookahead_threads=2 / sliced_threads=0 / nr=0 / decimate=0 / interlaced=0 / bluray_compat=0 / constrained_intra=0 / fgo=0 / bframes=0 / weightp=0 / keyint=250 / keyint_min=23 / scenecut=40 / intra_refresh=0 / rc_lookahead=80 / rc=crf / mbtree=1 / crf=20.0000 / qcomp=0.70 / qpmin=0:0:0 / qpmax=69:69:69 / qpstep=4 / vbv_maxrate=5000 / vbv_bufsize=5000 / crf_max=0.0 / nal_hrd=none / filler=0 / ip_ratio=1.35 / aq=4:0.90 / aq-sensitivity=10.00 / aq-factor=1.00:1.00:1.00 / aq2=0 / aq3=0
    Language : English
    Encoded date : UTC 2014-03-03 17:13:49
    Tagged date : UTC 2014-03-03 17:14:11
    Matrix coefficients : BT.709

    Video #2
    ID : 6
    Format : JPEG
    Codec ID : jpeg
    Duration : 1h 37mn
    Bit rate mode : Variable
    Bit rate : 962 bps
    Width : 640 pixels
    Height : 273 pixels
    Display aspect ratio : 2.35:1
    Frame rate mode : Variable
    Frame rate : 0.003 fps
    Minimum frame rate : 0.002 fps
    Maximum frame rate : 0.006 fps
    Color space : YUV
    Chroma subsampling : 4:2:0
    Bit depth : 8 bits
    Compression mode : Lossy
    Bits/(Pixel*Frame) : 1.835
    Stream size : 666 KiB (0%)
    Language : English
    Encoded date : UTC 2014-03-03 17:48:02
    Tagged date : UTC 2014-03-03 17:48:02

    Audio #1
    ID : 2
    Format : AAC
    Format/Info : Advanced Audio Codec
    Format profile : LC
    Codec ID : 40
    Duration : 1h 37mn
    Bit rate mode : Variable
    Bit rate : 126 Kbps
    Maximum bit rate : 152 Kbps
    Channel(s) : 2 channels
    Channel positions : Front: L R
    Sampling rate : 48.0 KHz
    Compression mode : Lossy
    Stream size : 87.8 MiB (6%)
    Title : Dub
    Language : Russian
    Encoded date : UTC 2014-03-03 17:06:50
    Tagged date : UTC 2014-03-03 17:14:11

    Audio #2
    ID : 3
    Format : AAC
    Format/Info : Advanced Audio Codec
    Format profile : LC
    Codec ID : 40
    Duration : 1h 37mn
    Bit rate mode : Variable
    Bit rate : 128 Kbps
    Maximum bit rate : 163 Kbps
    Channel(s) : 2 channels
    Channel positions : Front: L R
    Sampling rate : 48.0 KHz
    Compression mode : Lossy
    Stream size : 89.2 MiB (6%)
    Title : Original
    Language : English
    Encoded date : UTC 2014-03-03 17:12:02
    Tagged date : UTC 2014-03-03 17:14:11

    Text
    ID : 4
    Format : Timed Text
    Muxing mode : sbtl
    Codec ID : tx3g
    Duration : 1h 37mn
    Bit rate mode : Variable
    Bit rate : 52 bps
    Stream size : 36.8 KiB (0%)
    Title : Subtitle English SDH
    Language : English
    Encoded date : UTC 2014-03-03 17:14:11
    Tagged date : UTC 2014-03-03 17:14:11

    Menu
    ID : 5
    Codec ID : text
    Duration : 1h 37mn
    Language : English
    Encoded date : UTC 2014-03-03 17:14:29
    Tagged date : UTC 2014-03-03 17:14:29
    Bit rate mode : CBR
    iTunes Meta Tags

    Sort Name: Freddy vs. Jason
    XID: Apple:vendor_id:2003-8005
    contentID: 293421934
    Copyright: Avery Pix, Cecchi Gori Group Tiger Cinematografica,New Line Cinema
    Screenwriters: Дэмиэн Шеннон, Марк Свифт, Уэс Крэйвен
    Producers: Шон С. Каннингэм, Стоукли Чаффин, Дуглас Кертис
    Director: Ронни Ю
    Cast: Роберт Инглунд, Кен Кирзингер, Моника Кина, Джейсон Риттер, Келли Роулэнд, Крис Маркетт, Брендан Флетчер, Кэтрин Изабель, Локлин Манро, Кайл Лабайн
    Studio: Avery Pix, Cecchi Gori Group Tiger Cinematografica,New Line Cinema
    Rating: 5
    Long Deion: Фредди Крюгер доведен до отчаяния: он больше не может убивать. Лишь используя неуклюжего серийного убийцу Джейсона Вурхиса, Фредди удается истреблять детей с улицы Вязов. Но когда Джейсон начинает понимать, что им попросту манипулируют, планы Фредди готовы рухнуть.
    Теперь дело за тинейджерами Уиллом, Лори и Кией. Каким-то образом им надо заставить Джейсона раз и навсегда убить Фредди Крюгера
    Deion: Фредди Крюгер доведен до отчаяния: он больше не может убивать. Лишь используя неуклюжего серийного убийцу Джейсона Вурхиса, Фредди удается истреблять детей с улицы Вязов.
    Release Date: 2003-08-13T08:00:00Z
    Genre: Horror
    Comments: One, two, Freddy;s coming for you... three, four, Jason;s at your door...
    Artist: Ronny Yu
    Name: Фредди против Джейсона
    x264

    x264 info: frame I:4291 Avg QP:18.71 size: 24133
    x264 info: frame P:135732 Avg QP:20.73 size: 9564
    x264 info: mb I I16..4: 39.6% 0.0% 60.4%
    x264 info: mb P I16..4: 2.2% 0.0% 2.4% P16..4: 49.7% 17.7% 9.5% 1.5% 0.7% skip:16.3%
    x264 info: coded y,uvDC,uvAC intra: 56.7% 73.6% 52.2% inter: 39.6% 45.4% 23.5%
    x264 info: i16 v,h,dc,p: 48% 14% 11% 26%
    x264 info: i4 v,h,dc,ddl,ddr,vr,hd,vl,hu: 30% 11% 17% 7% 7% 10% 5% 8% 4%
    x264 info: i8c dc,h,v,p: 50% 14% 26% 10%
    x264 info: ref P L0: 74.5% 25.5%
    x264 info: kb/s:1920.13




    Залил: gekka
    Размер скачиваемого торрента: 1.48 GB (1591496063 Bytes)

    Фредди против Джейсона / Freddy vs. Jason (2003) BDRip-AVC | iPhone | D торрент скачать бесплатно
    загрузка...
    Рейтинг →
     (голосов: 1, оценка 3/5, голосовать можно 1 раз )

    Другие торренты по теме:

  • Фредди против Джейсона / Freddy vs. Jason (2003) BDRip 720p от R.G.GoldenShara
  • OST - Фредди против Джейсона / Freddy vs. Jason (2003) MP3
  • Фредди против Джейсона / Freddy vs. Jason (2003) HDRip | A скачать через торрент бесплатно
  • Фредди против Джейсона / Freddy vs. Jason (2003) BDRip-AVC
  • Фредди против Джейсона / Freddy vs. Jason (2003) BDRip-AVC от MediaClub | D, P, A
  • Фредди против Джейсона / Freddy vs. Jason (2003) BDRip 720p от SuperMin скачать через торрент бесплатно
  • Фредди против Джейсона / Freddy vs. Jason
  • Фредди против Джейсона / Freddy vs. Jason (2003) BDRip 720p | D, P, A


    • Комментарии (0):

      Информация

      Информация

        Посетители, находящиеся в группе Гости, не могут оставлять комментарии в данной новости.

        ↓ Меню



        ↓ Опрос

        А Вы добавили сайт в закладки?
        Да
        Не


        Top 10 за месяц (Фильмы)