.
Авторизация | Регистрация
Хочешь лучшие торренты? Добавь свой email!
Добавить




Лимб / Haunter (2013) DVD5 | D торрент скачать бесплатно

Опубликовал: Админ | Дата: 27-02-2015, 11:10 | Просмотров: 224



Детально о кино
Русское название: Лимб
Русское название в мировом прокате: Haunter
Создали в: 2013
Категория жанра: ужасы, триллер, детектив
Главный режиссер: Винченцо Натали
Актеры: Эбигейл Бреслин, Питер Аутербридж, Мишель Нолден, Стивен МакХэтти, Питер ДаКуна, Элинор Зичи, Дэвид Нолл, Саманта Вайнштейн, Дэвид Хьюлетт, Сара Мэннинен

Сюжет фильма:
На первый взгляд, Лиза с её младшим братом и родителями — совершенно обыкновенная семья, ведущая спокойную, размеренную жизнь. Но никто, кроме девочки, не подозревает, что они проживают один и тот же день уже не в первый раз…




Снималось в: Канада, Франция
Киностудия: Copper Heart Entertainment
Время просмотра: 97 мин. / 01:37
Перевод текста: полное дублирование

Файл
Кодек для видео: MPEG2
Качество фильма: DVD5
Информация о видео: PAL 16:9 (720x576) VBR 5678 Kbps, 25.000 fps
Информация о звуке: Dolby AC3, 6 ch, 48.0 KHz, 448 Kbps
Субтитры: отсутствуют
Оригинальная дорожка: отсутствует
Бонусы: Смотрите на DVD; Создатели и исполнители

MediaInfo
General
Complete name : E:LimbVIDEO_TSVTS_04_1.VOB
Format : MPEG-PS
File size : 1 024 MiB
Duration : 22mn 54s
Overall bit rate mode : Variable
Overall bit rate : 6 250 Kbps

Video
ID : 224 (0xE0)
Format : MPEG Video
Format version : Version 2
Format profile : Main@Main
Format settings, BVOP : No
Format settings, Matrix : Default
Format settings, GOP : M=3, N=12
Duration : 22mn 54s
Bit rate mode : Variable
Bit rate : 5 678 Kbps
Maximum bit rate : 8 000 Kbps
Width : 720 pixels
Height : 576 pixels
Display aspect ratio : 16:9
Frame rate : 25.000 fps
Standard : PAL
Color space : YUV
Chroma subsampling : 4:2:0
Bit depth : 8 bits
Scan type : Progressive
Compression mode : Lossy
Bits/(Pixel*Frame) : 0.548
Time code of first frame : 00:00:00:00
Time code source : Group of pictures t_head
Stream size : 930 MiB (91%)

Audio
ID : 189 (0xBD)-128 (0x80)
Format : AC-3
Format/Info : Audio Coding 3
Mode extension : CM (complete main)
Format settings, Endianness : Big
Muxing mode : DVD-Video
Duration : 22mn 54s
Bit rate mode : Constant
Bit rate : 448 Kbps
Channel(s) : 6 channels
Channel positions : Front: L C R, Side: L R, LFE
Sampling rate : 48.0 KHz
Bit depth : 16 bits
Compression mode : Lossy
Stream size : 73.4 MiB (7%)

Menu

Скриншоты для ознакомления

Залил: carisha
Размер скачиваемого торрента: 4.36 GB (4680689664 Bytes)

Лимб / Haunter (2013) DVD5 | D торрент скачать бесплатно
загрузка...
Рейтинг →
 (голосов: 1, оценка 3/5, голосовать можно 1 раз )

Другие торренты по теме:

  • Лимб (2013) скачать через торрент бесплатно
  • Лимб / Haunter (2013) DVDRip | Лицензия скачать через торрент бесплатно
  • Лимб / Haunter (2013) DVDRip от Youtracker | D | лицензия
  • Лимб / Haunter (2013) DVDRip-AVC от Youtracker | D | лицензия
  • Лимб / Haunter (2013) WEB-DLRip 720p | Лицензия
  • Лимб / Haunter (2013) WEB-DLRip | Лицензия
  • Лимб / Haunter (2013) Blu-Ray 1080p от HDClub | Лицензия
  • Лимб / Haunter (2013) Blu-Ray Remux 1080p | Лицензия


    • Комментарии (0):

      Информация

      Информация

        Посетители, находящиеся в группе Гости, не могут оставлять комментарии в данной новости.

        ↓ Меню



        ↓ Опрос

        А Вы добавили сайт в закладки?
        Да
        Не


        Top 10 за месяц (Фильмы)