.
Авторизация | Регистрация
Хочешь лучшие торренты? Добавь свой email!
Добавить




Дядя / Uncle (2014) HDTVRip | Sub торрент скачать бесплатно

Опубликовал: Админ | Дата: 27-02-2015, 11:10 | Просмотров: 302

Дядя / Uncle

Создали в: 2014
Снималось в: Великобритания
Категория жанра: Комедия
Время просмотра: 00:27:00

Перевод текста: Субтитры lakdhf (М.Васильев)
Главный режиссёр: Оливер Рефсон

Актеры: Ник Хелм, Дейзи Хаггард, Эллиот Спеллер - Жило, Сидни Уайт

Сюжет: Очередной герой нашего времени, вечно укуренный и не очень трезвый Энди - нечто среднее между лузером и дауншифтером - влачит жалкое (с поправкой на уровень жизни в Англии) существование, когда неожиданно на горизонте появляется 12 - летний племянник, о существовании которого Энди имел весьма смутное представление...
Сериал рассказывает о взаимоотношениях дяди - неформала и его до зубного скрежета правильного племянника, о их приключениях: забавных, опасных, грустных...

Доп. информация: Данный сериал - бенефис стэнд - ап комика Ника Хелма.

Эфир в Великобритании: 13 января - 17 февраля 2014
О создателе сериала



Ник Хелм (1981) - популярный стэнд - ап комик. А рано или поздно все успешные стэндаперы получают собственные ситкомы. Хелм пошел проторенной дорожкой, которой до него уже пользовались:

Дэн Кларк - автор Как не стоить жить

Джек Уайтхолл - создатель Раздолбайской учебы

и комик - труппа Оболтусы

Профессиональные достижения Хелма:
номинация на премию Король комедии в категории Лучшее стэнд - ап шоу 2012



Сэмпл: http://yadi.sk/d/LhjZFKtdGaiyH

Качество фильма: HDTVRip
Тип видео: AVI
Информация о видео кодек: XviD
Информация о звуке кодек: MP3
Информация о видео: 1039 Kbps, 640x360 (16:9) 25 000 fps MPEG 4 Visual XviD 0.180 bit/pixel
Информация о звуке: 128 Kbps 48.0 KHz 2 ch MPEG Audio MP 3
Субтитры: есть
MediaInfo

General
Complete name : C:UsersВладелецDesktopwww.Torrenting.com - Uncle.S01E01.HDTV.XviD-AFGUncle.S01E01.HDTV.XviD-AFG.avi
Format : AVI
Format/Info : Audio Video Interleave
File size : 228 MiB
Duration : 27mn 0s
Overall bit rate mode : Variable
Overall bit rate : 1 180 Kbps

Video
ID : 0
Format : MPEG-4 Visual
Format profile : Advanced Simple@L5
Format settings, BVOP : 2
Format settings, QPel : No
Format settings, GMC : No warppoints
Format settings, Matrix : Default (H.263)
Codec ID : XVID
Codec ID/Hint : XviD
Duration : 27mn 0s
Bit rate : 1 039 Kbps
Width : 640 pixels
Height : 360 pixels
Display aspect ratio : 16:9
Frame rate : 25.000 fps
Color space : YUV
Chroma subsampling : 4:2:0
Bit depth : 8 bits
Scan type : Progressive
Compression mode : Lossy
Bits/(Pixel*Frame) : 0.180
Stream size : 201 MiB (88%)
Writing library : XviD 64

Audio
ID : 1
Format : MPEG Audio
Format version : Version 1
Format profile : Layer 3
Mode : Joint stereo
Mode extension : MS Stereo
Codec ID : 55
Codec ID/Hint : MP3
Duration : 27mn 0s
Bit rate mode : Variable
Bit rate : 128 Kbps
Channel(s) : 2 channels
Sampling rate : 48.0 KHz
Compression mode : Lossy
Stream size : 24.7 MiB (11%)
Alignment : Aligned on interleaves
Interleave, duration : 24 ms (0.60 video frame)
Interleave, preload duration : 178 ms
Title : Uncle.S01E01.HDTV.XviD-AFG_360p.audio

Скриншоты для ознакомления







Размер скачиваемого торрента: 1.55 GB (1668888365 Bytes)

Дядя / Uncle (2014) HDTVRip | Sub торрент скачать бесплатно
загрузка...
Рейтинг →
 (голосов: 1, оценка 3/5, голосовать можно 1 раз )

Другие торренты по теме:

  • Сергей Михалков - Дядя Стёпа (1982) (2011) FLAC
  • Дядя Рави / Ravi dada (1999) SATRip от Files-x | P
  • Баранкин, будь человеком! Дядя Миша. Ивашка из Дворца пионеров. Про Сидорова Вову. (1963-1985) DVDRip-AVC от Youtracker
  • Баранкин, будь человеком! Дядя Миша. Ивашка из Дворца пионеров. Про Сидорова Вову. (1963-1985) DVDRip от Youtracker
  • Кто ТАМ - Дядя Федор (2013) MP3 от AGR - Generalfilm
  • Дядя Шарль / Loncle Charles (2012) BDRip 720p | НТВ скачать через торрент бесплатно
  • Дядя Шарль / Loncle Charles (2012) HDRip | НТВ скачать через торрент бесплатно
  • Дядя Шарль / Loncle Charles (2012) HDRip от BitTracker


    • Комментарии (0):

      Информация

      Информация

        Посетители, находящиеся в группе Гости, не могут оставлять комментарии в данной новости.

        ↓ Меню



        ↓ Опрос

        А Вы добавили сайт в закладки?
        Да
        Не


        Top 10 за месяц (Фильмы)