.
Авторизация | Регистрация
» » Дело чести (2013) DVDRip от New-Team | лицензия торрент скачать бесплатно




    Дело чести (2013) DVDRip от New-Team | лицензия торрент скачать бесплатно

    Опубликовал: Админ | Дата: 27-02-2015, 11:10 | Просмотров: 272



    Снималось в: Россия / Всемирные Русские Студии, ВайТ Медиа
    Категория жанра: драма
    Создали в: 2013
    Время просмотра: 20 x ~00:50:00

    Перевод текста: не требуется
    Субтитры подготовлены: нет
    Оригинальная аудиодорожка: русский

    Главный режиссер: Алексей Чистиков

    Актеры: Алексей Чадов, Людмила Свитова, Андрей Чадов, Татьяна Яковенко, Агния Дитковските, Сергей Жигунов, Татьяна Васильева, Виктория Толстоганова, Иван Агапов, Юлия Мельникова...

    Сюжет: Захватывающая история берет свое начало в 2000-х годах, когда семья Назаровых, надеясь на лучшую жизнь, перебирается из провинциального городка в Москву. Здесь отец братьев вкладывает все сбережения в собственный бизнес и открывает магазин с техникой на крупном рынке. Казалось бы, новая жизнь начинает налаживаться, но павильон грабят. В итоге главу семейства находят повесившимся, а его жена сходит с ума, не сумев пережить трагедию.
    Понимая, что ограбление — не случайность, братья решают отомстить за родителей, но выбирают противоположные методы. Иван, которого играет Алексей Чадов, решает внедриться в преступный мир, найти всех, кто виновен в гибели отца, и постепенно их уничтожить. Его брат Александр планирует стать юристом, чтобы бороться с преступностью и несправедливостью при помощи закона.
    Не только способы достижения цели разводят братьев по разные стороны баррикад: Иван и Александр становятся соперниками, влюбляясь в одних и тех же женщин, а также переживают предательства друзей и союзников. Однако в самые тяжелые и решающие моменты они могут надеяться только друг на друга.



    Качество фильма: DVDRip (2 x DVD9 R5)
    Тип видео: AVI

    Информация о видео: 688x384 (16:9), 25.000 fps, XViD ~ 1340 kbps avg, 0.203 bit/pixel
    Информация о звуке: 48 kHz, АС3 2 ch, 96 kbps, русский

    Раздача от:
    MediaInfo

    Общее
    Полное имя : Delo.chesti.2013.DVDRip_New-team_by_avproh1.avi
    Формат : AVI
    Формат/Информация : Audio Video Interleave
    Размер файла : 534 Мбайт
    Продолжительность : 51 м.
    Общий поток : 1445 Кбит/сек
    Программа кодирования : VirtualDubModRus 1.5.10.2 (build 2542/release)
    Библиотека кодирования : VirtualDubMod build 2542/release

    Видео
    Идентификатор : 0
    Формат : MPEG-4 Visual
    Профиль формата : Advanced Simple@L5
    Параметр BVOP формата : 1
    Параметр QPel формата : Нет
    Параметр GMC формата : Без точки перехода
    Параметр матрицы формата : Выборочная
    Идентификатор кодека : XVID
    Идентификатор кодека/Подсказка : XviD
    Продолжительность : 51 м.
    Битрейт : 1340 Кбит/сек
    Ширина : 688 пикселей
    Высота : 384 пикселя
    Соотношение сторон : 16:9
    Частота кадров : 25,000 кадров/сек
    Цветовое пространство : YUV
    Субдискретизация насыщенности : 4:2:0
    Битовая глубина : 8 бит
    Тип развёртки : Прогрессивная
    Метод сжатия : С потерями
    Бит/(Пиксели*Кадры) : 0.203
    Размер потока : 495 Мбайт (93%)
    Библиотека кодирования : XviD 73

    Аудио
    Идентификатор : 1
    Формат : AC-3
    Формат/Информация : Audio Coding 3
    Расширение режима : CM (complete main)
    Параметр Endianness формата : Big
    Идентификатор кодека : 2000
    Продолжительность : 51 м.
    Вид битрейта : Постоянный
    Битрейт : 96,0 Кбит/сек
    Каналы : 2 канала
    Расположение каналов : Front: L R
    Частота : 48,0 КГц
    Битовая глубина : 16 бит
    Метод сжатия : С потерями
    Размер потока : 35,5 Мбайт (7%)
    Выравнивание : Разделение по промежуткам
    Продолжительность промежутка : 40 мс. (1,00 видеокадр)
    Время предзагрузки промежутка : 500 мс.

    Скриншоты для ознакомления:



    Резервные скриншоты:



    Залил: avproh
    Размер скачиваемого торрента: 10.13 GB (10875125760 Bytes)

    Дело чести (2013) DVDRip от New-Team | лицензия торрент скачать бесплатно
    загрузка...
    Рейтинг →
     (голосов: 1, оценка 5/5, голосовать можно 1 раз )

    Другие торренты по теме:

  • Дело чести / Смелость / Dhill (2001) SATRip от Files-x | P торрент скачать бесплатно
  • Дело чести (2013) 2хDVD-9 от NovaLan скачать через торрент бесплатно
  • Дело чести (2013) DVDRip-AVC от ExKinoRay | Лицензия торрент скачать бесплатно
  • Дело чести (2013) DVDRip-AVC от New-Team | лицензия торрент скачать бесплатно
  • Пучков Лев - Кровник 3, Дело чести (2014) MP3 скачать через торрент бесплатно
  • Дело чести (2011) DVDRip от КинозалSAT | Лицензия скачать торрент бесплатно
  • Дело чести (2013) HDTV 1080i от MediaClub скачать торрент бесплатно
  • Дело чести (2013) HDTVRip 720p от MediaClub скачать торрент бесплатно


    • Комментарии (0):

      Информация

      Информация

        Посетители, находящиеся в группе Гости, не могут оставлять комментарии в данной новости.

        ↓ Меню



        ↓ Опрос

        А Вы добавили сайт в закладки?
        Да
        Не


        Top 10 за неделю (Фильмы)