.
Авторизация | Регистрация
» » Август / August: Osage County (2013) BDRip 1080p | Лицензия скачать через торрент бесплатно




    Август / August: Osage County (2013) BDRip 1080p | Лицензия скачать через торрент бесплатно

    Опубликовал: Админ | Дата: 27-02-2015, 11:10 | Просмотров: 213



    Детально о кино
    Русское название: Август
    Русское название в мировом прокате: August: Osage County
    Создали в: 2013
    Категория жанра: Драма
    Снималось в: США, Jean Doumanian Productions
    Главный режиссер: Джон Уэллс
    Актеры: Мэрил Стрип, Джулия Робертс, Джулианна Николсон, Марго Мартиндейл, Эбигейл Бреслин, Эван МакГрегор, Джульетт Льюис, Дермот Малруни, Сэм Шепард, Бенедикт Камбербэтч

    Сюжет фильма: Смешная до слез и грустная до боли история семьи. После таинственного исчезновения отца, три дочери со своими возлюбленными возвращаются в родной дом, чтобы поддержать мать и разыскать главу семейства.



    Качество фильма: BDRip (1080p)
    Информация о видео: MPEG-4 AVC, 10.3 Мбит/с, 1920x804
    Информация о звуке: Русский (DTS, 6 ch, 1510 Кбит/с), (AC3, 6 ch, 640 Кбит/с), английский (DTS, 6 ch, 1510 Кбит/с)
    Размер скачиваемого торрента: 11.81 ГБ
    Время просмотра: 02:00:49
    Перевод текста: Дублированный лицензия
    Субтитры: Русские, английские

    MI
    Общее
    Уникальный идентификатор : 188327159007550744907995635510022547378 (0x8DAE7DD21E4D44C6953D30FFB2F4A7B2)
    Полное имя : C:August.Osage.County.2013.BluRay.1080p.DTS.CHD.mkv
    Формат : Matroska
    Версия формата : Version 2
    Размер файла : 11,8 Гбайт
    Продолжительность : 2 ч. 0 м.
    Общий поток : 14,0 Мбит/сек
    Название фильма : August.Osage.County.2013.BluRay.1080p.DTS.x264-CHD
    Дата кодирования : UTC 2014-03-04 20:01:20
    Программа кодирования : mkvmerge v6.7.0 (;Back to the Ground;) 64bit built on Jan 8 2014 15:10:52
    Библиотека кодирования : libebml v1.3.0 libmatroska v1.4.1

    Видео
    Идентификатор : 1
    Формат : AVC
    Формат/Информация : Advanced Video Codec
    Профиль формата : High@L4.1
    Параметр CABAC формата : Да
    Параметр ReFrames формата : 5 кадров
    Идентификатор кодека : V_MPEG4/ISO/AVC
    Продолжительность : 2 ч. 0 м.
    Битрейт : 10,3 Мбит/сек
    Ширина : 1920 пикселей
    Высота : 804 пикселя
    Соотношение сторон : 2,40:1
    Режим частоты кадров : Постоянный
    Частота кадров : 24,000 кадра/сек
    Цветовое пространство : YUV
    Субдискретизация насыщенности : 4:2:0
    Битовая глубина : 8 бит
    Тип развёртки : Прогрессивная
    Бит/(Пиксели*Кадры) : 0.279
    Размер потока : 8,49 Гбайт (72%)
    Заголовок : hahay0yo@CHD
    Библиотека кодирования : x264 core 138 r2356 a1d3d17
    Настройки программы : cabac=1 / ref=5 / deblock=1:-3:-3 / analyse=0x3:0x113 / me=umh / subme=10 / psy=1 / psy_rd=1.00:0.05 / mixed_ref=1 / me_range=32 / chroma_me=1 / trellis=2 / 8x8dct=1 / cqm=0 / deadzone=21,11 / fast_pskip=0 / chroma_qp_offset=-2 / threads=18 / lookahead_threads=1 / sliced_threads=0 / nr=0 / decimate=1 / interlaced=0 / bluray_compat=0 / constrained_intra=0 / bframes=6 / b_pyramid=2 / b_adapt=2 / b_bias=0 / direct=3 / weightb=1 / open_gop=0 / weightp=2 / keyint=250 / keyint_min=24 / scenecut=40 / intra_refresh=0 / rc=2pass / mbtree=0 / bitrate=10337 / ratetol=1.0 / qcomp=0.70 / qpmin=0 / qpmax=69 / qpstep=4 / cplxblur=20.0 / qblur=0.5 / ip_ratio=1.40 / pb_ratio=1.30 / aq=2:0.90
    Язык : English
    Default : Да
    Forced : Нет

    Аудио #1
    Идентификатор : 2
    Формат : DTS
    Формат/Информация : Digital Theater Systems
    Режим : 16
    Параметр Endianness формата : Big
    Идентификатор кодека : A_DTS
    Продолжительность : 2 ч. 0 м.
    Вид битрейта : Постоянный
    Битрейт : 1509 Кбит/сек
    Каналы : 6 каналов
    Расположение каналов : Front: L C R, Side: L R, LFE
    Частота : 48,0 КГц
    Битовая глубина : 16 бит
    Метод сжатия : С потерями
    Размер потока : 1,27 Гбайт (11%)
    Язык : Russian
    Default : Да
    Forced : Да

    Аудио #2
    Идентификатор : 3
    Формат : AC-3
    Формат/Информация : Audio Coding 3
    Расширение режима : CM (complete main)
    Параметр Endianness формата : Big
    Идентификатор кодека : A_AC3
    Продолжительность : 2 ч. 0 м.
    Вид битрейта : Постоянный
    Битрейт : 640 Кбит/сек
    Каналы : 6 каналов
    Расположение каналов : Front: L C R, Side: L R, LFE
    Частота : 48,0 КГц
    Битовая глубина : 16 бит
    Метод сжатия : С потерями
    Размер потока : 553 Мбайт (5%)
    Язык : Russian
    Default : Нет
    Forced : Нет

    Аудио #3
    Идентификатор : 6
    Формат : DTS
    Формат/Информация : Digital Theater Systems
    Режим : 16
    Параметр Endianness формата : Big
    Идентификатор кодека : A_DTS
    Продолжительность : 2 ч. 0 м.
    Вид битрейта : Постоянный
    Битрейт : 1509 Кбит/сек
    Каналы : 6 каналов
    Расположение каналов : Front: L C R, Side: L R, LFE
    Частота : 48,0 КГц
    Битовая глубина : 24 бит
    Метод сжатия : С потерями
    Размер потока : 1,27 Гбайт (11%)
    Заголовок : English DTS 5.1 1509Kbps
    Язык : English
    Default : Нет
    Forced : Нет

    Текст #1
    Идентификатор : 4
    Формат : UTF-8
    Идентификатор кодека : S_TEXT/UTF8
    Идентификатор кодека/Информация : UTF-8 Plain Text
    Язык : Russian
    Default : Нет
    Forced : Нет

    Текст #2
    Идентификатор : 5
    Формат : UTF-8
    Идентификатор кодека : S_TEXT/UTF8
    Идентификатор кодека/Информация : UTF-8 Plain Text
    Язык : English
    Default : Нет
    Forced : Нет

    Меню #1
    00:00:00.000 : en:00:00:00.000
    00:07:14.833 : en:00:07:14.833
    00:13:55.583 : en:00:13:55.583
    00:25:15.833 : en:00:25:15.833
    00:33:02.167 : en:00:33:02.167
    00:40:18.167 : en:00:40:18.167
    00:47:25.250 : en:00:47:25.250
    00:58:19.417 : en:00:58:19.417
    01:08:45.625 : en:01:08:45.625
    01:18:35.833 : en:01:18:35.833
    01:29:46.125 : en:01:29:46.125
    01:38:34.542 : en:01:38:34.542
    01:44:39.458 : en:01:44:39.458
    01:49:44.667 : en:01:49:44.667
    01:55:27.833 : en:01:55:27.833


    Скриншоты для ознакомления



    Размер скачиваемого торрента: 11.81 GB (12678201852 Bytes)

    Август / August: Osage County (2013) BDRip 1080p | Лицензия скачать через торрент бесплатно
    загрузка...
    Рейтинг →
     (голосов: 1, оценка 5/5, голосовать можно 1 раз )

    Другие торренты по теме:

  • Ось войны. Часть первая: Первое августа / Axis of War Part 1: The First of Au First of August (2010) DVD5 торрент скачать бесплатно
  • Август / August (2008) DVDRip торрент скачать бесплатно
  • Август Раш / August Rush (2007) BDRip 1080p от FREEISLAND торрент скачать бесплатно
  • Рождество в августе / Palwolui Christmas / Christmas in August (1998) HDRip | L1 торрент скачать бесплатно
  • Август - Дискография (1983-2012) MP3 торрент скачать бесплатно
  • Chip №8 Россия (август) (2013) PDF торрент скачать бесплатно
  • Maxim №8 Украина (август 2013) PDF торрент скачать бесплатно
  • Мир фантастики №8 (август) (2013) PDF торрент скачать бесплатно


    • Комментарии (0):

      Информация

      Информация

        Посетители, находящиеся в группе Гости, не могут оставлять комментарии в данной новости.

        ↓ Меню



        ↓ Опрос

        А Вы добавили сайт в закладки?
        Да
        Не


        Top 10 за неделю (Фильмы)