.
Авторизация | Регистрация
Хочешь лучшие торренты? Добавь свой email!
Добавить
» » Заклятие / The Conjuring (2013) DVD9 | D скачать через торрент бесплатно




    Заклятие / The Conjuring (2013) DVD9 | D скачать через торрент бесплатно

    Опубликовал: Админ | Дата: 27-02-2015, 11:10 | Просмотров: 415



    Детально о кино
    Русское название: Заклятие
    Русское название в мировом прокате: The Conjuring
    Создали в: 2013
    Категория жанра: ужасы, триллер
    Главный режиссер: Джеймс Ван
    Актеры: Вера Фармига, Патрик Уилсон, Рон Ливингстон, Лили Тейлор, Шэнли Касвелл, Хейли МакФарланд, Джои Кинг, Маккензи Фой, Кайла Дивер, Шэннон Кук-Чун

    Сюжет фильма:
    Фильм основан на реальных событиях из практики Эда и Лоррейн Уоррен. Пугающая история Эда и Лоррейн Уоррен, всемирно известных детективов, занимающихся паранормальными расследованиями. К ним за помощью обратилась семья, терроризируемая темным духом на уединенной ферме. Вынужденные сражаться с могущественной демонической сущностью Уоррены сталкиваются с самым пугающим случаем в своей жизни.




    Снималось в: США
    Киностудия: New Line Cinema
    Время просмотра: 112 мин. / 01:52
    Перевод текста: полное дублирование
    Перевод текста бонусов: субтитры

    Файл
    Кодек для видео: MPEG2
    Качество фильма: DVD9
    Информация о видео: PAL 16:9 (720x576) VBR 6178 Kbps, 25.000 fps
    Информация о звуке 1: Dolby AC3, 6 ch, 48.0 KHz, 384 Kbps русский, английский
    Информация о звуке 2: Dolby AC3, 2 ch, 48.0 KHz, 192 Kbps турецкий
    Субтитры: русские, украинские, английские, турецкие, болгарские, словенские, сербские, хорватские, эстонские, латышские, литовские
    Бонусы: Искусство пугать до смерти

    MediaInfo
    General
    Complete name : E:ZaklyatieVIDEO_TSVTS_01_2.VOB
    Format : MPEG-PS
    File size : 1 024 MiB
    Duration : 19mn 39s
    Overall bit rate mode : Variable
    Overall bit rate : 7 283 Kbps

    Video
    ID : 224 (0xE0)
    Format : MPEG Video
    Format version : Version 2
    Format profile : Main@Main
    Format settings, BVOP : No
    Format settings, Matrix : Custom
    Format settings, GOP : Variable
    Duration : 19mn 39s
    Bit rate mode : Variable
    Bit rate : 6 178 Kbps
    Maximum bit rate : 9 800 Kbps
    Width : 720 pixels
    Height : 576 pixels
    Display aspect ratio : 16:9
    Frame rate : 25.000 fps
    Standard : PAL
    Color space : YUV
    Chroma subsampling : 4:2:0
    Bit depth : 8 bits
    Scan type : Interlaced
    Scan order : Top Field First
    Compression mode : Lossy
    Bits/(Pixel*Frame) : 0.596
    Time code of first frame : 01:20:17:07
    Time code source : Group of pictures t_head
    Stream size : 869 MiB (85%)

    Audio #1
    ID : 189 (0xBD)-128 (0x80)
    Format : AC-3
    Format/Info : Audio Coding 3
    Mode extension : CM (complete main)
    Format settings, Endianness : Big
    Muxing mode : DVD-Video
    Duration : 19mn 39s
    Bit rate mode : Constant
    Bit rate : 384 Kbps
    Channel(s) : 6 channels
    Channel positions : Front: L C R, Side: L R, LFE
    Sampling rate : 48.0 KHz
    Bit depth : 16 bits
    Compression mode : Lossy
    Delay relative to video : -80ms
    Stream size : 54.0 MiB (5%)

    Audio #2
    ID : 189 (0xBD)-129 (0x81)
    Format : AC-3
    Format/Info : Audio Coding 3
    Mode extension : CM (complete main)
    Format settings, Endianness : Big
    Muxing mode : DVD-Video
    Duration : 19mn 39s
    Bit rate mode : Constant
    Bit rate : 384 Kbps
    Channel(s) : 6 channels
    Channel positions : Front: L C R, Side: L R, LFE
    Sampling rate : 48.0 KHz
    Bit depth : 16 bits
    Compression mode : Lossy
    Delay relative to video : -80ms
    Stream size : 54.0 MiB (5%)

    Audio #3
    ID : 189 (0xBD)-130 (0x82)
    Format : AC-3
    Format/Info : Audio Coding 3
    Format profile : Dolby Digital
    Mode extension : CM (complete main)
    Format settings, Endianness : Big
    Muxing mode : DVD-Video
    Duration : 19mn 39s
    Bit rate mode : Constant
    Bit rate : 192 Kbps
    Channel(s) : 2 channels
    Channel positions : Front: L R
    Sampling rate : 48.0 KHz
    Bit depth : 16 bits
    Compression mode : Lossy
    Delay relative to video : -80ms
    Stream size : 27.0 MiB (3%)

    Text #1
    ID : 189 (0xBD)-32 (0x20)
    Format : RLE
    Format/Info : Run-length encoding
    Muxing mode : DVD-Video
    Duration : 12mn 11s
    Delay relative to video : 3s 520ms

    Text #2
    ID : 189 (0xBD)-33 (0x21)
    Format : RLE
    Format/Info : Run-length encoding
    Muxing mode : DVD-Video
    Duration : 12mn 11s
    Delay relative to video : 3s 520ms

    Text #3
    ID : 189 (0xBD)-34 (0x22)
    Format : RLE
    Format/Info : Run-length encoding
    Muxing mode : DVD-Video
    Duration : 12mn 8s
    Delay relative to video : 3s 520ms

    Text #4
    ID : 189 (0xBD)-35 (0x23)
    Format : RLE
    Format/Info : Run-length encoding
    Muxing mode : DVD-Video
    Duration : 12mn 10s
    Delay relative to video : 3s 520ms

    Text #5
    ID : 189 (0xBD)-36 (0x24)
    Format : RLE
    Format/Info : Run-length encoding
    Muxing mode : DVD-Video
    Duration : 12mn 10s
    Delay relative to video : 3s 520ms

    Text #6
    ID : 189 (0xBD)-37 (0x25)
    Format : RLE
    Format/Info : Run-length encoding
    Muxing mode : DVD-Video
    Duration : 12mn 8s
    Delay relative to video : 3s 520ms

    Text #7
    ID : 189 (0xBD)-38 (0x26)
    Format : RLE
    Format/Info : Run-length encoding
    Muxing mode : DVD-Video
    Duration : 12mn 10s
    Delay relative to video : 3s 520ms

    Text #8
    ID : 189 (0xBD)-39 (0x27)
    Format : RLE
    Format/Info : Run-length encoding
    Muxing mode : DVD-Video
    Duration : 12mn 8s
    Delay relative to video : 3s 520ms

    Text #9
    ID : 189 (0xBD)-40 (0x28)
    Format : RLE
    Format/Info : Run-length encoding
    Muxing mode : DVD-Video
    Duration : 12mn 8s
    Delay relative to video : 3s 520ms

    Text #10
    ID : 189 (0xBD)-41 (0x29)
    Format : RLE
    Format/Info : Run-length encoding
    Muxing mode : DVD-Video
    Duration : 12mn 8s
    Delay relative to video : 3s 520ms

    Text #11
    ID : 189 (0xBD)-42 (0x2A)
    Format : RLE
    Format/Info : Run-length encoding
    Muxing mode : DVD-Video
    Duration : 12mn 11s
    Delay relative to video : 3s 520ms

    Menu

    Скриншоты для ознакомления

    Залил: carisha
    Размер скачиваемого торрента: 5.58 GB (5986852864 Bytes)

    Заклятие / The Conjuring (2013) DVD9 | D скачать через торрент бесплатно
    загрузка...
    Рейтинг →
     (голосов: 1, оценка 3/5, голосовать можно 1 раз )

    Другие торренты по теме:

  • Заклятие долины змей / Klatwa Doliny Wezy (1987) DVDRip
  • Прозоров Александр - Заклятие предков (2004) (2013) MP3
  • Заклятие / The Conjuring (2013) CAMRip
  • Заклятие / The Conjuring (2013) WEBRip-AVC | L1
  • Заклятие / The Conjuring (2013) DVDRip | L1
  • Заклятие / The Conjuring (2013) DVDRip | Звук с CAMRip
  • Заклятие / The Conjuring (2013) DVDRip от INTERCINEMA | L1 скачать через торрент бесплатно
  • Заклятие / The Conjuring (2013) BDRip 1080p от MULTIBITS | Звук с CAMRip | L1 скачать через торрент бесплатно


    • Комментарии (0):

      Информация

      Информация

        Посетители, находящиеся в группе Гости, не могут оставлять комментарии в данной новости.

        ↓ Меню



        ↓ Опрос

        А Вы добавили сайт в закладки?
        Да
        Не


        Top 10 за месяц (Фильмы)