.
Авторизация | Регистрация
» » 12 лет рабства / 12 Years a Slave (2013) BDRip 720p от GORESEWAGE | US Transfer | iTunes Russia скачать через торрент бесплатно




    12 лет рабства / 12 Years a Slave (2013) BDRip 720p от GORESEWAGE | US Transfer | iTunes Russia скачать через торрент бесплатно

    Опубликовал: Админ | Дата: 27-02-2015, 11:10 | Просмотров: 211



    12 лет рабства / 12 Years a Slave

    Создали в: 2013
    Снималось в: США, Великобритания
    Категория жанра: драма, биография, история
    Время просмотра: 02:14:10
    Перевод текста: Профессиональный (дублированный) iTunes Russia
    Оригинальная аудиодорожка: English
    Субтитры: Russian (Full), English (Full, SDH, SDH Colored)
    Киностудия: Regency Enterprises, River Road Entertainment, Plan B Entertainment, New Regency Pictures, Film4

    Главный режиссёр: Стив МакКуин / Steve McQueen

    Актеры: Чиветель Эджиофор, Майкл Фассбендер, Лупита Нионго, Сара Полсон, Бенедикт Камбербэтч, Брэд Питт, Пол Дано, Пол Джаматти, Элфри Вудард, Куавенжаней Уоллис и др.

    Сюжет: Соломон Нортап был женатым и образованным мужчиной, который жил и работал в Нью-Йорке, когда два человека однажды предложили ему привлекательную работу в Вашингтоне. По прибытии он был похищен, стал рабом и влачил жалкую жизнь, переходя от одного хозяина к другому.



    Sample

    Качество фильма: BDRip 720p
    Контейнер: MKV
    Информация о видео кодек: MPEG-4 AVC Video
    Информация о звуке кодек: DTS / AC3
    Информация о видео: MPEG-4 AVC Video / 7393 kbps / 1280x534p / 23,976 fps / 2.40:1 / High Profile 4.1
    Информация о звуке 1: Russian / AC3 / 5.1 / 48 kHz / 384 kbps / 16-bit | Dub iTunes Russia
    Информация о звуке 2: English / DTS / 5.1 / 48 kHz / 1536 kbps / 24-bit | Original
    Навигация по главам: да

    Screens

    MediaInfo
    C:/GORESEWAGE/12 Years a Slave 2013 US Transfer BDRip 720p GORESEWAGE.mkv
    General
    Unique ID : 222745841130774282203677171606807073060 (0xA79349DDE5F141E4A2484452E2435124)
    Complete name : C:/GORESEWAGE/12 Years a Slave 2013 US Transfer BDRip 720p GORESEWAGE.mkv
    Format : Matroska
    Format version : Version 4 / Version 2
    File size : 8.88 GiB
    Duration : 2h 14mn
    Overall bit rate : 9 474 Kbps
    Movie name : 12 Years a Slave 2013 US Transfer BDRip 720p GORESEWAGE
    Encoded date : UTC 2014-03-04 09:47:37
    Writing application : mkvmerge v6.1.0 (;Old Devil;) built on Mar 2 2013 14:32:37
    Writing library : libebml v1.3.0 libmatroska v1.4.0
    Attachment : Yes
    Video #1
    ID : 1
    Format : AVC
    Format/Info : Advanced Video Codec
    Format profile : High@L4.1
    Format settings, CABAC : Yes
    Format settings, ReFrames : 12 frames
    Codec ID : V_MPEG4/ISO/AVC
    Duration : 2h 14mn
    Bit rate : 7 393 Kbps
    Width : 1 280 pixels
    Height : 534 pixels
    Display aspect ratio : 2.40:1
    Frame rate mode : Constant
    Frame rate : 23.976 fps
    Color space : YUV
    Chroma subsampling : 4:2:0
    Bit depth : 8 bits
    Scan type : Progressive
    Bits/(Pixel*Frame) : 0.451
    Stream size : 6.93 GiB (78%)
    Title : 12 Years a Slave 2013 US Transfer BDRip 720p GORESEWAGE
    Writing library : x264 core 142 r2389kMod 956c8d8
    Encoding settings : cabac=1 / ref=12 / deblock=1:-3:-3 / analyse=0x3:0x133 / me=umh / subme=10 / psy=1 / fade_compensate=0.00 / psy_rd=1.00:0.00 / mixed_ref=1 / me_range=32 / chroma_me=1 / trellis=2 / 8x8dct=1 / cqm=0 / deadzone=21,11 / fast_pskip=0 / chroma_qp_offset=-2 / threads=12 / lookahead_threads=3 / sliced_threads=0 / nr=0 / decimate=0 / interlaced=0 / bluray_compat=0 / constrained_intra=0 / fgo=0 / bframes=10 / b_pyramid=2 / b_adapt=2 / b_bias=0 / direct=3 / weightb=1 / open_gop=0 / weightp=2 / keyint=250 / keyint_min=23 / scenecut=40 / intra_refresh=0 / rc_lookahead=60 / rc=crf / mbtree=0 / crf=16.0000 / qcomp=0.65 / qpmin=0 / qpmax=69 / qpstep=4 / vbv_maxrate=62500 / vbv_bufsize=78125 / crf_max=0.0 / nal_hrd=none / filler=0 / ip_ratio=1.30 / pb_ratio=1.20 / aq=3:0.85
    Language : English
    Default : Yes
    Forced : No
    Audio #2
    ID : 2
    Format : AC-3
    Format/Info : Audio Coding 3
    Mode extension : CM (complete main)
    Format settings, Endianness : Big
    Codec ID : A_AC3
    Duration : 2h 14mn
    Bit rate mode : Constant
    Bit rate : 384 Kbps
    Channel count : 6 channels
    Channel positions : Front: L C R, Side: L R, LFE
    Sampling rate : 48.0 KHz
    Bit depth : 16 bits
    Compression mode : Lossy
    Stream size : 369 MiB (4%)
    Title : Dub iTunes Russia
    Language : Russian
    Default : Yes
    Forced : No
    Audio #3
    ID : 3
    Format : DTS
    Format/Info : Digital Theater Systems
    Mode : 16
    Format settings, Endianness : Big
    Codec ID : A_DTS
    Duration : 2h 14mn
    Bit rate mode : Constant
    Bit rate : 1 509 Kbps
    Channel count : 6 channels
    Channel positions : Front: L C R, Side: L R, LFE
    Sampling rate : 48.0 KHz
    Bit depth : 24 bits
    Compression mode : Lossy
    Stream size : 1.41 GiB (16%)
    Title : Original
    Language : English
    Default : No
    Forced : No
    Text #4
    ID : 4
    Format : UTF-8
    Codec ID : S_TEXT/UTF8
    Codec ID/Info : UTF-8 Plain Text
    Title : Full
    Language : Russian
    Default : No
    Forced : No
    Text #5
    ID : 5
    Format : UTF-8
    Codec ID : S_TEXT/UTF8
    Codec ID/Info : UTF-8 Plain Text
    Title : Full
    Language : English
    Default : No
    Forced : No
    Text #6
    ID : 6
    Format : UTF-8
    Codec ID : S_TEXT/UTF8
    Codec ID/Info : UTF-8 Plain Text
    Title : SDH
    Language : English
    Default : No
    Forced : No
    Text #7
    ID : 7
    Format : UTF-8
    Codec ID : S_TEXT/UTF8
    Codec ID/Info : UTF-8 Plain Text
    Title : SDH Colored
    Language : English
    Default : No
    Forced : No
    Menu
    00:00:00.000 : en:Chapter 1
    00:06:02.862 : en:Chapter 2
    00:10:13.529 : en:Chapter 3
    00:12:58.778 : en:Chapter 4
    00:16:24.650 : en:Chapter 5
    00:19:18.866 : en:Chapter 6
    00:25:01.708 : en:Chapter 7
    00:27:48.458 : en:Chapter 8
    00:32:07.967 : en:Chapter 9
    00:36:07.874 : en:Chapter 10
    00:39:39.126 : en:Chapter 11
    00:45:16.714 : en:Chapter 12
    00:47:36.144 : en:Chapter 13
    00:52:26.977 : en:Chapter 14
    00:54:34.187 : en:Chapter 15
    00:59:34.028 : en:Chapter 16
    01:01:47.704 : en:Chapter 17
    01:06:04.543 : en:Chapter 18
    01:09:55.691 : en:Chapter 19
    01:12:47.988 : en:Chapter 20
    01:15:27.689 : en:Chapter 21
    01:18:31.873 : en:Chapter 22
    01:21:08.488 : en:Chapter 23
    01:23:46.688 : en:Chapter 24
    01:26:25.972 : en:Chapter 25
    01:28:18.876 : en:Chapter 26
    01:31:22.518 : en:Chapter 27
    01:34:10.144 : en:Chapter 28
    01:38:14.013 : en:Chapter 29
    01:41:50.312 : en:Chapter 30
    01:45:18.895 : en:Chapter 31
    01:53:09.908 : en:Chapter 32
    01:54:46.504 : en:Chapter 33
    02:00:22.215 : en:Chapter 34
    02:04:07.398 : en:Chapter 35
    02:07:25.721 : en:Chapter 36

    Размер скачиваемого торрента: 8.88 GB (9533526203 Bytes)

    12 лет рабства / 12 Years a Slave (2013) BDRip 720p от GORESEWAGE | US Transfer | iTunes Russia скачать через торрент бесплатно
    загрузка...
    Рейтинг →
     (голосов: 1, оценка 5/5, голосовать можно 1 раз )

    Другие торренты по теме:

  • Топ Гир - 50 летие автомобилей Бонда / Top Gear - 50 Years of Bond Cars (2012) HDTV (1080i) от FilmRus торрент скачать бесплатно
  • Ведический календарь. Славяно-арийский календарь Коляды Дар на лето 7521, 2012-2013 год (2013) JPEG торрент скачать бесплатно
  • Новогодние открытки и плакаты военных лет (1941-1945) PNG от RG Superdetki торрент скачать бесплатно
  • Catharsis - 15 Лет Полёта.. (2012) DVDRip от SuperTracer торрент скачать бесплатно
  • Джентльмены удачи. 40 лет спустя (2012) SATRip торрент скачать бесплатно
  • Лето Джакомо / Lestate di Giacomo / Summer of Giacomo (2011) DVDRip | L1 торрент скачать бесплатно
  • 10 лет спустя / 10 Years (2012) HDRip | Чистый звук торрент скачать бесплатно
  • Юбилейный концерт Димы Билана - 30 лет. Начало (2012) HDTV 1080i торрент скачать бесплатно


    • Комментарии (0):

      Информация

      Информация

        Посетители, находящиеся в группе Гости, не могут оставлять комментарии в данной новости.

        ↓ Меню



        ↓ Опрос

        А Вы добавили сайт в закладки?
        Да
        Не


        Top 10 за неделю (Фильмы)