.
Авторизация | Регистрация
» » Ангел-А / Angel-A (2005) BDRip 720p by msltel | D, A, L1 скачать через торрент бесплатно




    Ангел-А / Angel-A (2005) BDRip 720p by msltel | D, A, L1 скачать через торрент бесплатно

    Опубликовал: Админ | Дата: 27-02-2015, 11:10 | Просмотров: 215



    Русское название: Ангел-А
    Русское название в мировом прокате: Angel-A
    Создали в: 2005
    Категория жанра: Фэнтези, драма, мелодрама, комедия
    Снималось в: Франция, Apipoulai, Canal fr, Europa Corp., Sofica Europacorp, TF1 Films Productions
    Главный режиссер: Люк Бессон
    Актеры: Жамель Деббуз, Рье Расмуссен, Жильбер Мелки, Серж Рябукин, Аким Шир, Эрик Балье, Луи Пора, Венус Бун, Жером Жесдон, Мишель Белло, Мишель Шесно, Оливье Клавери, Соланж Милход, Лоран Жамекур, Франк-Оливье Бонне, Аким Колур, Тони Десканвелль, Григорий Мануков, Ален Зеф, Жан-Марк Монтальто, Жиль Милан, Тодд М. Талер, Гаэль Мэриетт

    Сюжет фильма: 28-летний Андре должен десятки тысяч евро различным бандитам по всему Парижу. Когда подходит срок расплаты, он понимает, что шансов расплатиться нет. И в полиции, и в американском посольстве ему отказывают в помощи. Но вот, решив покончить с собой, он видит на мосту сногсшибательную красотку в очень маленьком чёрном платье, которая прыгает в Сену. Андре бросается за ней. Спасённая девушка обещает помочь Андре во всём: она придумывает удивительные способы добывать деньги и помогает решить проблемы с кредиторами. Но тут Андре начинает задаваться вопросом — почему эта восхитительная девушка так старается ради него?..

    Качество фильма: BDRip 720p
    Размер скачиваемого торрента: 3.28 ГБ
    Время просмотра: 01:30:38

    Информация о видео: MPEG-4 AVC, 3543 Кбит/с, 1280x546
    Информация о звуке 1: русский, 48 kHz, AC3, 6 ch, 448 kbps avg, Дублированный
    Информация о звуке 2: русский, 48 kHz, AC3, 6 ch, 448 kbps avg, Авторский, Андрей Гаврилов
    Информация о звуке 3: русский, 44.1 kHz, МР3, 6 ch, 192 kbps avg, Любительский, Вадим Архипов

    Внешние файлы
    Информация о звуке: французский, 48 kHz, AC3, 6 ch, 448 kbps avg, Оригинал
    Субтитры: русские
    Субтитры: английские

    Исходник: Кристо161 (HDtracker)

    Сравнение с исходником



    MediaInfo Лог х264
    Общее
    Полное имя : D:VideoAngel-A.2005.x264.BDRip.720pAngel-A.2005.eng.srt
    Формат : SubRip
    Размер файла : 106 Кбайт

    Текст
    Формат : SubRip
    Метод сжатия : Без потерь

    Общее
    Полное имя : D:VideoAngel-A.2005.x264.BDRip.720pAngel-A.2005.Original.fre.ac3
    Формат : AC-3
    Формат/Информация : Audio Coding 3
    Размер файла : 290 Мбайт
    Продолжительность : 1 ч. 30 м.
    Режим общего битрейта : Постоянный
    Общий поток : 448 Кбит/сек

    Аудио
    Формат : AC-3
    Формат/Информация : Audio Coding 3
    Расширение режима : CM (complete main)
    Параметр Endianness формата : Big
    Продолжительность : 1 ч. 30 м.
    Вид битрейта : Постоянный
    Битрейт : 448 Кбит/сек
    Каналы : 6 каналов
    Расположение каналов : Front: L C R, Side: L R, LFE
    Частота : 48,0 КГц
    Битовая глубина : 16 бит
    Метод сжатия : С потерями
    Размер потока : 290 Мбайт (100%)

    Общее
    Полное имя : D:VideoAngel-A.2005.x264.BDRip.720pAngel-A.2005.rus.srt
    Формат : SubRip
    Размер файла : 139 Кбайт

    Текст
    Формат : SubRip
    Метод сжатия : Без потерь

    Общее
    Уникальный идентификатор : 197913416729877926165108357073710644642 (0x94E4BCD13B0B0EEEBFD433D896A07DA2)
    Полное имя : D:VideoAngel-A.2005.x264.BDRip.720pAngel-A.2005.x264.BDRip.720p.mkv
    Формат : Matroska
    Версия формата : Version 4 / Version 2
    Размер файла : 3,00 Гбайт
    Продолжительность : 1 ч. 30 м.
    Общий поток : 4733 Кбит/сек
    Название фильма : BDRip -- STarankov
    Дата кодирования : UTC 2014-03-04 11:37:11
    Программа кодирования : mkvmerge v6.7.0 (;Back to the Ground;) 64bit built on Jan 8 2014 15:10:52
    Библиотека кодирования : libebml v1.3.0 libmatroska v1.4.1

    Видео
    Идентификатор : 1
    Формат : AVC
    Формат/Информация : Advanced Video Codec
    Профиль формата : High@L4.1
    Параметр CABAC формата : Да
    Параметр ReFrames формата : 9 кадров
    Идентификатор кодека : V_MPEG4/ISO/AVC
    Продолжительность : 1 ч. 30 м.
    Битрейт : 3551 Кбит/сек
    Ширина : 1280 пикселей
    Высота : 546 пикселей
    Соотношение сторон : 2,35:1
    Режим частоты кадров : Постоянный
    Частота кадров : 24,000 кадра/сек
    Цветовое пространство : YUV
    Субдискретизация насыщенности : 4:2:0
    Битовая глубина : 8 бит
    Тип развёртки : Прогрессивная
    Бит/(Пиксели*Кадры) : 0.212
    Размер потока : 2,25 Гбайт (75%)
    Библиотека кодирования : x264 core 138 r2358 9e941d1
    Залил: msltel
    Размер скачиваемого торрента: 3.28 GB (3522698314 Bytes)


    Ангел-А / Angel-A (2005) BDRip 720p by msltel | D, A, L1 скачать через торрент бесплатно
    загрузка...
    Рейтинг →
     (голосов: 1, оценка 4/5, голосовать можно 1 раз )

    Другие торренты по теме:

  • Дни ангела (2003) DVDRip торрент скачать бесплатно
  • Ангел хранитель / Аnglavakt (2010) DVDRip | L1 торрент скачать бесплатно
  • Секс ангелов / El sexo de los angeles / The Sex of the Angels (2012) BDRip 720p от KinoFan | L1 торрент скачать бесплатно
  • OST - Ангелы и демоны / Angels Demons Soundtrack (2009) MP3 торрент скачать бесплатно
  • День в городе ангелов / Куда тебя приводит день / Where the Day Takes You (1992) DVDRip от R.G.RealMT торрент скачать бесплатно
  • Ангел в сердце (2012) HDTV 1080i торрент скачать бесплатно
  • Ангел в сердце (2012) SATRip торрент скачать бесплатно
  • Ангел в сердце (2012) HDTVRip от Getty торрент скачать бесплатно


    • Комментарии (0):

      Информация

      Информация

        Посетители, находящиеся в группе Гости, не могут оставлять комментарии в данной новости.

        ↓ Меню



        ↓ Опрос

        А Вы добавили сайт в закладки?
        Да
        Не


        Top 10 за неделю (Фильмы)