.
Авторизация | Регистрация
Хочешь лучшие торренты? Добавь свой email!
Добавить
» » Альбатрос / Albatross (2011) WEB-DL от CINEMANIA | P, P2 скачать через торрент бесплатно




    Альбатрос / Albatross (2011) WEB-DL от CINEMANIA | P, P2 скачать через торрент бесплатно

    Опубликовал: Админ | Дата: 27-02-2015, 11:10 | Просмотров: 221



    Детально о кино
    Русское название: Альбатрос
    Русское название в мировом прокате: Albatross
    Создали в: 2011
    Категория жанра: драма
    Главный режиссер: Найал МакКормик
    Актеры: Джессика Браун-Финдли, Гарри Тредэвэй, Джозеф Алтин, Фелисити Джонс, Джулия Ормонд, Джастин Эдвардс, Себастьян Кох, Дэвид Кан, Шила Монахэн, Кэти Оверд

    Сюжет фильма:
    Эмили – умная, красивая и весьма самоуверенная семнадцатилетняя девушка, которая всегда получает то, что хочет, не особо считаясь с чувствами и мнением окружающих. Однажды Эмили устраивается на работу в отель, который держит семейная пара. У хозяев этого заведения есть дочь Бет – ровесница Эмили, но полная ей противоположность. Несмотря на разницу в воспитании, девушки быстро становятся подругами. А пока скромная и милая Бет готовится к поступлению в Оксфорд, безбашенная Эмили заводит страстный роман с ее отцом.



    Снималось в: Великобритания
    Время просмотра: 01:29:51
    Тип перевода:
    Профессиональное (многоголосое) online movies - IVI
    Профессиональное (двухголосое) студия Elrom

    Файл
    Тип видео: MKV
    Качество фильма: WEB-DL 1080p CrazyHD
    Информация о видео: 3577 kb/s, 1912x792
    Информация о звуке: Russian IVI / Elrom: AC3, 192 kb/s (2 ch) / English: AC3, 384 kb/s (6 ch)
    Субтитры: English
    Дополнительно: Сохранены оригинальные чаптеры как на Blu-ray
    Размер скачиваемого торрента: 2.78 Gb
    Скачать: Сэмпл

    Релиз группы:




    NFO
    Общее
    Albatross.2011.WEB-DL.1080p.CINEMANIA.mkv
    Формат : Matroska
    Версия формата : Version 4 / Version 2
    Размер файла : 2,78 Гбайт
    Продолжительность : 1 ч. 29 м.
    Общий поток : 4434 Кбит/сек
    Название фильма : Release Group CINEMANIA
    Дата кодирования : UTC 2014-03-03 22:18:20
    Программа кодирования : mkvmerge v6.7.0 (;Back to the Ground;) 64bit built on Jan 8 2014 15:10:52
    Библиотека кодирования : libebml v1.3.0 libmatroska v1.4.1

    Видео
    Идентификатор : 1
    Формат : AVC
    Формат/Информация : Advanced Video Codec
    Профиль формата : High@L4.0
    Параметр CABAC формата : Да
    Параметр ReFrames формата : 5 кадров
    Идентификатор кодека : V_MPEG4/ISO/AVC
    Продолжительность : 1 ч. 29 м.
    Битрейт : 3577 Кбит/сек
    Ширина : 1912 пикселей
    Высота : 792 пикселя
    Соотношение сторон : 2,40:1
    Режим частоты кадров : Постоянный
    Частота кадров : 23,976 кадра/сек
    Цветовое пространство : YUV
    Субдискретизация насыщенности : 4:2:0
    Битовая глубина : 8 бит
    Тип развёртки : Прогрессивная
    Бит/(Пиксели*Кадры) : 0.099
    Размер потока : 2,25 Гбайт (81%)
    Заголовок : Release Group CINEMANIA
    Язык : English
    Default : Да
    Forced : Нет
    Основные цвета : BT.709
    Характеристики трансфера : BT.709
    Коэффициенты матрицы : BT.709

    Аудио #1
    Идентификатор : 2
    Формат : AC-3
    Формат/Информация : Audio Coding 3
    Расширение режима : CM (complete main)
    Параметр Endianness формата : Big
    Идентификатор кодека : A_AC3
    Продолжительность : 1 ч. 29 м.
    Вид битрейта : Постоянный
    Битрейт : 192 Кбит/сек
    Каналы : 2 канала
    Расположение каналов : Front: L R
    Частота : 48,0 КГц
    Битовая глубина : 16 бит
    Метод сжатия : С потерями
    Размер потока : 123 Мбайт (4%)
    Заголовок : IVI
    Язык : Russian
    Default : Да
    Forced : Да

    Аудио #2
    Идентификатор : 3
    Формат : AC-3
    Формат/Информация : Audio Coding 3
    Расширение режима : CM (complete main)
    Параметр Endianness формата : Big
    Идентификатор кодека : A_AC3
    Продолжительность : 1 ч. 29 м.
    Вид битрейта : Постоянный
    Битрейт : 192 Кбит/сек
    Каналы : 2 канала
    Расположение каналов : Front: L R
    Частота : 48,0 КГц
    Битовая глубина : 16 бит
    Метод сжатия : С потерями
    Размер потока : 123 Мбайт (4%)
    Заголовок : Elrom
    Default : Нет
    Forced : Нет

    Аудио #3
    Идентификатор : 4
    Формат : AC-3
    Формат/Информация : Audio Coding 3
    Расширение режима : CM (complete main)
    Параметр Endianness формата : Big
    Идентификатор кодека : A_AC3
    Продолжительность : 1 ч. 29 м.
    Вид битрейта : Постоянный
    Битрейт : 384 Кбит/сек
    Каналы : 6 каналов
    Расположение каналов : Front: L C R, Side: L R, LFE
    Частота : 48,0 КГц
    Битовая глубина : 16 бит
    Метод сжатия : С потерями
    Размер потока : 247 Мбайт (9%)
    Язык : English
    Default : Нет
    Forced : Нет

    Текст
    Идентификатор : 5
    Формат : UTF-8
    Идентификатор кодека : S_TEXT/UTF8
    Идентификатор кодека/Информация : UTF-8 Plain Text
    Язык : English
    Default : Нет
    Forced : Нет

    Меню
    00:00:00.000 : en:Chapter One
    00:08:00.000 : en:Chapter Two
    00:15:09.000 : en:Chapter Three
    00:20:59.000 : en:Chapter Four
    00:27:35.000 : en:Chapter Five
    00:37:07.000 : en:Chapter Six
    00:46:31.000 : en:Chapter Seven
    00:50:48.000 : en:Chapter Eight
    01:00:30.000 : en:Chapter Nine
    01:07:54.000 : en:Chapter Ten
    01:17:46.000 : en:Chapter Eleven
    01:27:04.000 : en:Chapter Twelve

    Залил: DGEKIGAN
    Размер скачиваемого торрента: 2.78 GB (2988697710 Bytes)

    Альбатрос / Albatross (2011) WEB-DL от CINEMANIA | P, P2 скачать через торрент бесплатно
    загрузка...
    Рейтинг →
     (голосов: 1, оценка 3/5, голосовать можно 1 раз )

    Другие торренты по теме:

  • Альбатрос / Albatross (2011) DVDRip | Elrom


    • Комментарии (0):

      Информация

      Информация

        Посетители, находящиеся в группе Гости, не могут оставлять комментарии в данной новости.

        ↓ Меню



        ↓ Опрос

        А Вы добавили сайт в закладки?
        Да
        Не


        Top 10 за месяц (Фильмы)