.
Авторизация | Регистрация
» » Дело чести (2013) 2хDVD-9 от NovaLan скачать через торрент бесплатно




    Дело чести (2013) 2хDVD-9 от NovaLan скачать через торрент бесплатно

    Опубликовал: Админ | Дата: 27-02-2015, 11:10 | Просмотров: 349



    Детально о киноДело чести
    Русское название в мировом прокате:
    Создали в: 2013
    Категория жанра: Драма
    Главный режиссер: Алексей Чистиков
    Актеры: Алексей Чадов, Людмила Свитова, Андрей Чадов, Татьяна Яковенко, Агния Дитковските, Сергей Жигунов, Татьяна Васильева, Виктория Толстоганова, Иван Агапов, Юлия Мельникова

    Сюжет фильма: Захватывающая история берет свое начало в 2000-х годах, когда семья Назаровых, надеясь на лучшую жизнь, перебирается из провинциального городка в Москву. Здесь отец братьев вкладывает все сбережения в собственный бизнес и открывает магазин с техникой на крупном рынке. Казалось бы, новая жизнь начинает налаживаться, но павильон грабят. В итоге главу семейства находят повесившимся, а его жена сходит с ума, не сумев пережить трагедию. Понимая, что ограбление — не случайность, братья решают отомстить за родителей, но выбирают противоположные методы. Иван, которого играет Алексей Чадов, решает внедриться в преступный мир, найти всех, кто виновен в гибели отца, и постепенно их уничтожить. Его брат Александр планирует стать юристом, чтобы бороться с преступностью и несправедливостью при помощи закона.


    Снималось в: Россия
    Киностудия: ВайТ Медиа, Всемирные Русские Студии
    Время просмотра: 20 x ~ 00:50:00
    Язык: Русский



    Файл
    Кодек для видео: MPEG-2
    Качество фильма: DVD-9
    Информация о видео: PAL 16:9 (720x576) VBR
    Информация о звуке: Русский (Dolby AC3, 2 ch)


    Меню


    DVDInfo
    Title: Локальный диск
    Size: 7.70 Gb ( 8 075 128 KBytes ) - DVD-9
    Enabled regions: 1, 2, 3, 4, 5, 6, 7, 8

    VTS_01 :
    Play Length: 00:51:38 00:49:02 00:50:42 00:50:00 00:49:36 00:50:02 00:49:06 00:50:26 00:49:30 00:48:51
    Video: PAL 16:9 (720x576) VBR, Auto PanScan
    Audio:
    English (Dolby AC3, 2 ch)

    Menu Video:
    PAL 16:9 (720x576) VBR
    Auto PanScan
    Menu Audio:
    Not specified (Dolby AC3, 2 ch)
    Menu Subtitles:
    Not specified
    Menu English Language Unit :
    Root Menu




    MediaInfo
    Общее
    Полное имя : D:1АААДЕЛО ЧЕСТИДИСК 1VIDEO_TSVTS_01_1.VOB
    Формат : MPEG-PS
    Размер файла : 1000 Мбайт
    Продолжительность : 10 м.
    Режим общего битрейта : Переменный
    Общий поток : 13,4 Мбит/сек

    Видео
    Идентификатор : 224 (0xE0)
    Формат : MPEG Video
    Версия формата : Version 2
    Профиль формата : Main@Main
    Параметр BVOP формата : Да
    Параметр матрицы формата : По умолчанию
    Параметр GOP формата : Variable
    Продолжительность : 10 м.
    Вид битрейта : Переменный
    Битрейт : 13,1 Мбит/сек
    Максимальный битрейт : 9200 Кбит/сек
    Ширина : 720 пикселей
    Высота : 576 пикселей
    Соотношение сторон : 16:9
    Частота кадров : 25,000 кадров/сек
    Стандарт вещания : PAL
    Цветовое пространство : YUV
    Субдискретизация насыщенности : 4:2:0
    Битовая глубина : 8 бит
    Тип развёртки : Прогрессивная
    Метод сжатия : С потерями
    Бит/(Пиксели*Кадры) : 1.262
    TimeCode_FirstFrame : 00:00:00:00
    TimeCode_Source : Group of pictures t_head
    Размер потока : 973 Мбайт (97%)

    Аудио
    Идентификатор : 189 (0xBD)-128 (0x80)
    Формат : AC-3
    Формат/Информация : Audio Coding 3
    Расширение режима : CM (complete main)
    Параметр Endianness формата : Big
    Режим смешивания : DVD-Video
    Продолжительность : 10 м.
    Вид битрейта : Постоянный
    Битрейт : 96,0 Кбит/сек
    Каналы : 2 канала
    Расположение каналов : Front: L R
    Частота : 48,0 КГц
    Битовая глубина : 16 бит
    Метод сжатия : С потерями
    Размер потока : 7,14 Мбайт (1%)

    Меню




    Скриншоты для ознакомления

    Залил: YArl
    Размер скачиваемого торрента: 15.57 GB (16723427328 Bytes)

    Дело чести (2013) 2хDVD-9 от NovaLan скачать через торрент бесплатно
    загрузка...
    Рейтинг →
     (голосов: 1, оценка 5/5, голосовать можно 1 раз )

    Другие торренты по теме:

  • Дело чести / Смелость / Dhill (2001) SATRip от Files-x | P торрент скачать бесплатно
  • Дело чести (2013) DVDRip от New-Team | лицензия торрент скачать бесплатно
  • Дело чести (2013) DVDRip-AVC от ExKinoRay | Лицензия торрент скачать бесплатно
  • Дело чести (2013) DVDRip-AVC от New-Team | лицензия торрент скачать бесплатно
  • Пучков Лев - Кровник 3, Дело чести (2014) MP3 скачать через торрент бесплатно
  • Дело чести (2011) DVDRip от КинозалSAT | Лицензия скачать торрент бесплатно
  • Дело чести (2013) HDTV 1080i от MediaClub скачать торрент бесплатно
  • Дело чести (2013) HDTVRip 720p от MediaClub скачать торрент бесплатно


    • Комментарии (0):

      Информация

      Информация

        Посетители, находящиеся в группе Гости, не могут оставлять комментарии в данной новости.

        ↓ Меню



        ↓ Опрос

        А Вы добавили сайт в закладки?
        Да
        Не


        Top 10 за неделю (Фильмы)