.
Авторизация | Регистрация
» » Обезьянья лапа / Тhe Monkeys Paw (2013) WEB-DL 720p от CINEMANIA | L2 торрент скачать бесплатно




    Обезьянья лапа / Тhe Monkeys Paw (2013) WEB-DL 720p от CINEMANIA | L2 торрент скачать бесплатно

    Опубликовал: Админ | Дата: 27-02-2015, 11:10 | Просмотров: 214



    Детально о кино
    Русское название: Обезьянья лапа
    Русское название в мировом прокате: Тhe Monkey;s Paw
    Создали в: 2013
    Категория жанра: ужасы, триллер
    Главный режиссер: Бретт Симмонс
    Актеры: С.Дж. Томасон, Стивен Лэнг, Мишель Пирс, Корбин Блю, Дэниэл Хью Келли, Чарльз С. Даттон, Джессика Гарви, Энди Фавро

    Сюжет фильма:
    Есть прекрасная возможность испытать те чувства, которые мы испытываем, когда исполняются наши заветные желания. Вот что бы вы хотели? Есть у вас мечта? А никогда не думали над тем, к каким последствиям может привести легкое исполнение желаний? И еще: кто может их исполнить? Фея? Волшебная палочка? Волшебник? Президент страны?.. Ну - последнее точно фантастика. Тут роль феи исполняет обезьянья лапа, которая интригует зрителя на протяжении всего просмотра. Последствия исполнения желаний оказываются неожиданными. Узнав о них, можно извлечь массу уроков...

    Как то один старик рассказал парню историю про волшебную обезьянью лапу, которая выполняет три желания и дал её ему. Вместе они ехали по дороге и случайно попали в аварию. Старик умер, а парень с помощью этой лапы загадал желание, чтоб старик ожил. Старик ожил, только он уже не был тем безобидным человеком, как раньше...



    Снималось в: США
    Время просмотра: 01:28:28
    Тип перевода: Любительское (двухголосое) DeadSno den904
    перевод на русский язык МЕГАПЫХАРЬ ОХ! Студия

    Файл
    Тип видео: MKV
    Качество фильма: WEB-DL 720p HD4FUN
    Информация о видео: 3891 kb/s, 1280x718
    Информация о звуке: Russian / English: AC3, 384 kb/s (6 ch)
    Субтитры: English
    Дополнительно: Сохранены оригинальные чаптеры как на Blu-ray
    Размер скачиваемого торрента: 2.93 GB
    Скачать: Сэмпл

    Релиз группы:




    NFO
    Общее
    The.Monkeys.Paw.2013.WEB-DL.720p.CINEMANIA.mkv
    Формат : Matroska
    Версия формата : Version 4 / Version 2
    Размер файла : 2,93 Гбайт
    Продолжительность : 1 ч. 28 м.
    Общий поток : 4746 Кбит/сек
    Название фильма : Release Group CINEMANIA
    Дата кодирования : UTC 2014-03-05 18:17:19
    Программа кодирования : mkvmerge v6.8.0 (;Theme for Great Cities;) 64bit built on Mar 2 2014 21:34:26
    Библиотека кодирования : libebml v1.3.0 libmatroska v1.4.1

    Видео
    Идентификатор : 1
    Формат : AVC
    Формат/Информация : Advanced Video Codec
    Профиль формата : High@L3.1
    Параметр CABAC формата : Нет
    Параметр ReFrames формата : 2 кадра
    Идентификатор кодека : V_MPEG4/ISO/AVC
    Продолжительность : 1 ч. 28 м.
    Битрейт : 3884 Кбит/сек
    Ширина : 1280 пикселей
    Высота : 718 пикселей
    Соотношение сторон : 16:9
    Режим частоты кадров : Постоянный
    Частота кадров : 23,976 кадра/сек
    Цветовое пространство : YUV
    Субдискретизация насыщенности : 4:2:0
    Битовая глубина : 8 бит
    Тип развёртки : Прогрессивная
    Бит/(Пиксели*Кадры) : 0.176
    Размер потока : 2,40 Гбайт (82%)
    Заголовок : Release Group CINEMANIA
    Язык : English
    Default : Да
    Forced : Нет
    Основные цвета : BT.709
    Характеристики трансфера : BT.709
    Коэффициенты матрицы : BT.709

    Аудио #1
    Идентификатор : 2
    Формат : AC-3
    Формат/Информация : Audio Coding 3
    Расширение режима : CM (complete main)
    Параметр Endianness формата : Big
    Идентификатор кодека : A_AC3
    Продолжительность : 1 ч. 28 м.
    Вид битрейта : Постоянный
    Битрейт : 384 Кбит/сек
    Каналы : 6 каналов
    Расположение каналов : Front: L C R, Side: L R, LFE
    Частота : 48,0 КГц
    Битовая глубина : 16 бит
    Метод сжатия : С потерями
    Размер потока : 243 Мбайт (8%)
    Заголовок : Влад и Снежинка
    Язык : Russian
    Default : Да
    Forced : Да

    Аудио #2
    Идентификатор : 3
    Формат : AC-3
    Формат/Информация : Audio Coding 3
    Расширение режима : CM (complete main)
    Параметр Endianness формата : Big
    Идентификатор кодека : A_AC3
    Продолжительность : 1 ч. 28 м.
    Вид битрейта : Постоянный
    Битрейт : 384 Кбит/сек
    Каналы : 6 каналов
    Расположение каналов : Front: L C R, Side: L R, LFE
    Частота : 48,0 КГц
    Битовая глубина : 16 бит
    Метод сжатия : С потерями
    Размер потока : 243 Мбайт (8%)
    Язык : English
    Default : Нет
    Forced : Нет

    Текст
    Идентификатор : 4
    Формат : UTF-8
    Идентификатор кодека : S_TEXT/UTF8
    Идентификатор кодека/Информация : UTF-8 Plain Text
    Язык : English
    Default : Нет
    Forced : Нет

    Меню
    00:00:00.000 : en:1
    00:02:08.000 : en:2
    00:06:43.000 : en:3
    00:11:40.000 : en:4
    00:16:24.000 : en:5
    00:20:05.000 : en:6
    00:26:22.000 : en:7
    00:29:31.000 : en:8
    00:35:17.000 : en:9
    00:39:08.000 : en:10
    00:45:14.000 : en:11
    00:49:26.000 : en:12
    00:55:34.000 : en:13
    00:59:37.000 : en:14
    01:06:05.000 : en:15
    01:12:06.000 : en:16
    01:24:49.000 : en:17
    01:25:44.000 : en:18

    Залил: DGEKIGAN
    Размер скачиваемого торрента: 2.93 GB (3149352831 Bytes)

    Обезьянья лапа / Тhe Monkeys Paw (2013) WEB-DL 720p от CINEMANIA | L2 торрент скачать бесплатно
    загрузка...
    Рейтинг →
     (голосов: 1, оценка 3/5, голосовать можно 1 раз )

    Другие торренты по теме:

  • Обезьянья лапа / Тhe Monkeys Paw (2013) HDRip | UNRATED | Xixidok скачать через торрент бесплатно


    • Комментарии (0):

      Информация

      Информация

        Посетители, находящиеся в группе Гости, не могут оставлять комментарии в данной новости.

        ↓ Меню



        ↓ Опрос

        А Вы добавили сайт в закладки?
        Да
        Не


        Top 10 за неделю (Фильмы)