.
Авторизация | Регистрация
» » Инструкции не прилагаются / No se Aceptan Devoluciones / Instructions Not Included (2013) BDRip-AVC | A торрент скачать бесплатно




    Инструкции не прилагаются / No se Aceptan Devoluciones / Instructions Not Included (2013) BDRip-AVC | A торрент скачать бесплатно

    Опубликовал: Админ | Дата: 27-02-2015, 11:10 | Просмотров: 329



    Детально о кино
    Русское название: Инструкции не прилагаются
    Русское название в мировом прокате: No se Aceptan Devoluciones / Instructions Not Included
    Создали в: 2013
    Категория жанра: драма, комедия
    Главный режиссер: Эухенио Дербес
    Актеры: Уго Стиглиц, Эухенио Дербес, Гилда Джентиле, Нэнси Таира, Джессика Линдси, Сэмми Перез, Арселия Рамирес

    Сюжет фильма: Жизнь преподносит сюрпризы, готовы ли Вы к ним…
    Жизнь плейбоя из Акапулько резко меняется, когда на пороге его дома ему вручили грудного младенца со словами — Это твоя дочь. Шесть лет ему потребовалось, чтобы найти мать девочки, которую он искал от Мехико до Лос-Анджелеса. Чтобы прокормить себя и новообретенную дочь, он устроился в Голливуд и стал ведущим каскадером. Но когда накануне очередного дня рождения девочки у порога его дома появляется настоящая мать Мэгги, он вдруг понимает, что может потерять своего лучшего друга, которыми они стали с девочкой за шесть лет.




    Снималось в: Мексика
    Киностудия: Alebrije Cine y Video, Fulano, Mengano y Asociados
    Время просмотра: 02:01:57
    Перевод текста: Авторское (одноголосое) (А.Матвеев)

    Файл
    Кодек для видео: h.264
    Качество фильма: BDRip-AVC
    Информация о видео: AVC, 1024 x 576, ~1813 kbps
    Информация о звуке #1: Русский: AC-3, 6 ch, 448 kbps
    Информация о звуке #2: Испанский: AC-3, 6 ch, 448 kbps
    Субтитры: Русский (М.Васильев)

    Семпл

    Скриншоты для ознакомления
    MI
    Общее
    Уникальный идентификатор : 168348648403719580577546155723716462494 (0x7EA6C532C2870C1E037BA147C20E879E)
    Полное имя : G:Инструкции не прилагаются No se Aceptan Devoluciones Instructions Not Included (2013) BDRip-AVCInstructions.Not.Included.2013.BDRip-AVC..mkv
    Формат : Matroska
    Версия формата : Version 2
    Размер файла : 2,35 Гбайт
    Продолжительность : 2 ч. 1 м.
    Режим общего битрейта : Переменный
    Общий поток : 2764 Кбит/сек
    Программа кодирования : Lavf51.12.1
    Библиотека кодирования : Lavf51.12.1

    Видео
    Идентификатор : 1
    Формат : AVC
    Формат/Информация : Advanced Video Codec
    Профиль формата : Baseline@L3.1
    Параметр CABAC формата : Нет
    Параметр ReFrames формата : 1 кадр
    Параметр GOP формата : M=1, N=12
    Идентификатор кодека : V_MPEG4/ISO/AVC
    Продолжительность : 2 ч. 1 м.
    Вид битрейта : Переменный
    Битрейт : 1813 Кбит/сек
    Максимальный битрейт : 2790 Кбит/сек
    Ширина : 1024 пикселя
    Высота : 576 пикселей
    Соотношение сторон : 16:9
    Режим частоты кадров : Постоянный
    Частота кадров : 23,976 кадра/сек
    Частота кадров в оригинале : 24,000 кадра/сек
    Цветовое пространство : YUV
    Субдискретизация насыщенности : 4:2:0
    Битовая глубина : 8 бит
    Тип развёртки : Прогрессивная
    Бит/(Пиксели*Кадры) : 0.128
    Размер потока : 1,54 Гбайт (66%)
    Язык : English
    Default : Да
    Forced : Нет

    Аудио #1
    Идентификатор : 2
    Формат : AC-3
    Формат/Информация : Audio Coding 3
    Расширение режима : CM (complete main)
    Параметр Endianness формата : Big
    Идентификатор кодека : A_AC3
    Продолжительность : 2 ч. 1 м.
    Вид битрейта : Постоянный
    Битрейт : 448 Кбит/сек
    Каналы : 6 каналов
    Расположение каналов : Front: L C R, Side: L R, LFE
    Частота : 48,0 КГц
    Битовая глубина : 16 бит
    Метод сжатия : С потерями
    Размер потока : 391 Мбайт (16%)
    Язык : Russian
    Default : Да
    Forced : Нет

    Аудио #2
    Идентификатор : 4
    Формат : AC-3
    Формат/Информация : Audio Coding 3
    Расширение режима : CM (complete main)
    Параметр Endianness формата : Big
    Идентификатор кодека : A_AC3
    Продолжительность : 2 ч. 1 м.
    Вид битрейта : Постоянный
    Битрейт : 448 Кбит/сек
    Каналы : 6 каналов
    Расположение каналов : Front: L C R, Side: L R, LFE
    Частота : 48,0 КГц
    Битовая глубина : 16 бит
    Метод сжатия : С потерями
    Размер потока : 391 Мбайт (16%)
    Язык : Spanish
    Default : Да
    Forced : Нет

    Текст
    Идентификатор : 3
    Формат : UTF-8
    Идентификатор кодека : S_TEXT/UTF8
    Идентификатор кодека/Информация : UTF-8 Plain Text
    Язык : Russian
    Default : Да
    Forced : Нет

    Размер скачиваемого торрента: 2.35 GB (2528051157 Bytes)

    Инструкции не прилагаются / No se Aceptan Devoluciones / Instructions Not Included (2013) BDRip-AVC | A торрент скачать бесплатно
    загрузка...
    Рейтинг →
     (голосов: 1, оценка 3/5, голосовать можно 1 раз )

    Другие торренты по теме:

  • Тайные знаки. Странные явления. Домовой. Инструкция по эксплуатации (2011) SATRip от Generalfilm торрент скачать бесплатно
  • Мужчина: Инструкция по применению / Mens Manual (2013) HDTVRip 720p | L1 скачать через торрент бесплатно
  • Мужчина: Инструкция по применению / Mens Manual (2013) DVDRip | L1 скачать через торрент бесплатно
  • Активаторы для Windows 7 с инструкцией по использованию (2012) PC скачать через торрент бесплатно
  • Demonisex - Инструкция по очистке Windows (2014) DOCX скачать через торрент бесплатно
  • Инструкции не прилагаются / No se Aceptan Devoluciones / Instructions Not Included (2013) BDRip 720p от GORESEWAGE | L1 скачать через торрент бесплатно
  • Инструкции не прилагаются / No se Aceptan Devoluciones / Instructions Not Included (2013) BDRip 1080p от CINEMANIA | A скачать через торрент бесплатно
  • Инструкции не прилагаются / No se Aceptan Devoluciones / Instructions Not Included (2013) BDRip 720p от CINEMANIA | A скачать через торрент бесплатно


    • Комментарии (0):

      Информация

      Информация

        Посетители, находящиеся в группе Гости, не могут оставлять комментарии в данной новости.

        ↓ Меню



        ↓ Опрос

        А Вы добавили сайт в закладки?
        Да
        Не


        Top 10 за неделю (Фильмы)