.
Авторизация | Регистрация
Хочешь лучшие торренты? Добавь свой email!
Добавить
» » Спасти мистера Бэнкса / Saving Mr. Banks (2013) BDRip 720p | BaibaKo торрент скачать бесплатно




    Спасти мистера Бэнкса / Saving Mr. Banks (2013) BDRip 720p | BaibaKo торрент скачать бесплатно

    Опубликовал: Админ | Дата: 27-02-2015, 11:10 | Просмотров: 231



    Детально о кино
    Русское название: Спасти мистера Бэнкса
    Русское название в мировом прокате: Saving Mr. Banks
    Создали в: 2013
    Категория жанра: Драма, история, биография, музыка
    Снималось в: США, Великобритания, Австралия, Walt Disney Pictures, Ruby Films, Essential Media Entertainment
    Главный режиссер: Джон Ли Хэнкок
    Актеры: Эмма Томпсон, Том Хэнкс, Пол Джаматти, Джейсон Шварцман, Колин Фаррелл, Энни Роуз Бакли, Рут Уилсон, Брэдли Уитфорд, Б.Дж. Новак, Лили Бигхем

    Сюжет фильма: История постановки классического художественного фильма Disney Мэри Поппинс. Когда Уолт Дисней пообещал своим дочерям снять фильм по их любимой книге, сказке Памелы Трэверс Мэри Поппинс, он даже не подозревал, что на исполнение этого обещания ему понадобится более двадцати лет. В попытке получить права на экранизацию книги, Уолт столкнулся со своенравной и несговорчивой британской писательницей, которая ни в коем случае не хотела, чтобы ее любимая героиня была испорчена голливудским подходом к созданию фильмов. Лишь в начале шестидесятых она согласилась лично приехать в Лос-Анджелес и начать переговоры об экранизации. На протяжении двух недель в 1961 году, пока длились переговоры с Памелой Трэверс, Уолт Дисней перепробовал все уловки. Он презентовал идеи и эскизы к фильму, пытался впечатлить писательницу великолепной музыкой, написанной талантливыми композиторами, братьями Шерман, и даже устраивал экскурсии в Диснейленд — однако Трэверс не шла ни на какие уговоры, и знаменитый кинематографист чуть было не отказался от своего замысла.




    Файл
    Качество фильма: BDRip (720p)
    Информация о видео: MPEG-4 AVC, 4758 Кбит/с, 1280x534
    Информация о звуке: Русский (AC3, 6 ch, 384 Кбит/с), английский (DTS, 6 ch, 1510 Кбит/с)
    Размер скачиваемого торрента: 5.84 ГБ
    Время просмотра: 02:05:40
    Перевод текста: Профессиональный многоголосый BaibaKo
    MI
    Общее
    Уникальный идентификатор : 247025173803197322704578037104658288617 (0xB9D751638012E2EEB0ABB03D57670FE9)
    Полное имя : C:Saving.Mr.Banks.2013.BluRay.720p.DTS.CHD.mkv
    Формат : Matroska
    Версия формата : Version 2
    Размер файла : 5,84 Гбайт
    Продолжительность : 2 ч. 5 м.
    Общий поток : 6653 Кбит/сек
    Дата кодирования : UTC 2014-03-05 17:02:33
    Программа кодирования : mkvmerge v6.7.0 (;Back to the Ground;) 64bit built on Jan 8 2014 15:10:52
    Библиотека кодирования : libebml v1.3.0 libmatroska v1.4.1

    Видео
    Идентификатор : 1
    Формат : AVC
    Формат/Информация : Advanced Video Codec
    Профиль формата : High@L4.1
    Параметр CABAC формата : Да
    Параметр ReFrames формата : 10 кадров
    Идентификатор кодека : V_MPEG4/ISO/AVC
    Продолжительность : 2 ч. 5 м.
    Битрейт : 4758 Кбит/сек
    Ширина : 1280 пикселей
    Высота : 534 пикселя
    Соотношение сторон : 2,40:1
    Режим частоты кадров : Постоянный
    Частота кадров : 23,976 кадра/сек
    Цветовое пространство : YUV
    Субдискретизация насыщенности : 4:2:0
    Битовая глубина : 8 бит
    Тип развёртки : Прогрессивная
    Бит/(Пиксели*Кадры) : 0.290
    Размер потока : 4,06 Гбайт (70%)
    Заголовок : Saving.Mr.Banks.2013
    Библиотека кодирования : x264 core 138 r2356 a1d3d17
    Настройки программы : cabac=1 / ref=10 / deblock=1:-3:-3 / analyse=0x3:0x113 / me=umh / subme=10 / psy=1 / psy_rd=1.00:0.05 / mixed_ref=1 / me_range=32 / chroma_me=1 / trellis=2 / 8x8dct=1 / cqm=0 / deadzone=21,11 / fast_pskip=0 / chroma_qp_offset=-2 / threads=18 / lookahead_threads=1 / sliced_threads=0 / nr=0 / decimate=1 / interlaced=0 / bluray_compat=0 / constrained_intra=0 / bframes=5 / b_pyramid=2 / b_adapt=2 / b_bias=0 / direct=3 / weightb=1 / open_gop=0 / weightp=2 / keyint=250 / keyint_min=23 / scenecut=40 / intra_refresh=0 / rc=2pass / mbtree=0 / bitrate=4758 / ratetol=1.0 / qcomp=0.70 / qpmin=0 / qpmax=69 / qpstep=4 / cplxblur=20.0 / qblur=0.5 / ip_ratio=1.40 / pb_ratio=1.30 / aq=2:0.90
    Язык : English
    Default : Да
    Forced : Нет

    Аудио #1
    Идентификатор : 2
    Формат : AC-3
    Формат/Информация : Audio Coding 3
    Расширение режима : CM (complete main)
    Параметр Endianness формата : Big
    Идентификатор кодека : A_AC3
    Продолжительность : 2 ч. 5 м.
    Вид битрейта : Постоянный
    Битрейт : 384 Кбит/сек
    Каналы : 6 каналов
    Расположение каналов : Front: L C R, Side: L R, LFE
    Частота : 48,0 КГц
    Битовая глубина : 16 бит
    Метод сжатия : С потерями
    Размер потока : 345 Мбайт (6%)
    Язык : Russian
    Default : Да
    Forced : Нет

    Аудио #2
    Идентификатор : 3
    Формат : DTS
    Формат/Информация : Digital Theater Systems
    Режим : 16
    Параметр Endianness формата : Big
    Идентификатор кодека : A_DTS
    Продолжительность : 2 ч. 5 м.
    Вид битрейта : Постоянный
    Битрейт : 1509 Кбит/сек
    Каналы : 6 каналов
    Расположение каналов : Front: L C R, Side: L R, LFE
    Частота : 48,0 КГц
    Битовая глубина : 24 бит
    Метод сжатия : С потерями
    Размер потока : 1,32 Гбайт (23%)
    Заголовок : dts-core 1536k eng
    Язык : English
    Default : Нет
    Forced : Нет

    Скриншоты для ознакомления


    Размер скачиваемого торрента: 5.84 GB (6270534136 Bytes)

    Спасти мистера Бэнкса / Saving Mr. Banks (2013) BDRip 720p | BaibaKo торрент скачать бесплатно
    загрузка...
    Рейтинг →
     (голосов: 1, оценка 4/5, голосовать можно 1 раз )

    Другие торренты по теме:

  • Спасти мистера Бэнкса / Saving Mr. Banks (2013) DVDScr | Звук с TS скачать через торрент бесплатно
  • Спасти мистера Бэнкса / Saving Mr. Banks (2013) HDRip | Звук с TS
  • Спасти мистера Бэнкса / Saving Mr. Banks (2013) HDRip от Scarabey
  • Спасти мистера Бэнкса / Saving Mr. Banks (2013) BDRip 1080p | BaibaKo
  • Спасти мистера Бэнкса / Saving Mr. Banks (2013) BDRip 720p от Leonardo and Scarabey | BaibaKo
  • Спасти мистера Бэнкса / Saving Mr. Banks (2013) HDRip-AVC от Leo.pard | P скачать через торрент бесплатно
  • Спасти мистера Бэнкса / Saving Mr. Banks (2013) BDRip-AVC от Leonardo and Scarabey | BaibaKo скачать через торрент бесплатно
  • Спасти мистера Бэнкса / Saving Mr. Banks (2013) HDRip от Scarabey | iTunes Russia скачать через торрент бесплатно


    • Комментарии (0):

      Информация

      Информация

        Посетители, находящиеся в группе Гости, не могут оставлять комментарии в данной новости.

        ↓ Меню



        ↓ Опрос

        А Вы добавили сайт в закладки?
        Да
        Не


        Top 10 за месяц (Фильмы)