.
Авторизация | Регистрация
Хочешь лучшие торренты? Добавь свой email!
Добавить
» » Август / August: Osage County (2013) HDRip | Лицензия торрент скачать бесплатно




    Август / August: Osage County (2013) HDRip | Лицензия торрент скачать бесплатно

    Опубликовал: Админ | Дата: 27-02-2015, 11:10 | Просмотров: 250



    Детально о кино
    Русское название: Август
    Русское название в мировом прокате: August: Osage County
    Создали в: 2013
    Категория жанра: Драма
    Главный режиссер: Джон Уэллс
    Актеры: Мэрил Стрип, Джулия Робертс, Джулианна Николсон, Марго Мартиндейл, Эбигейл Бреслин, Эван МакГрегор, Джульетт Льюис, Дермот Малруни, Сэм Шепард, Бенедикт Камбербэтч

    Сюжет фильма:
    Смешная до слез и грустная до боли история семьи. После таинственного исчезновения отца, три дочери со своими возлюбленными возвращаются в родной дом, чтобы поддержать мать и разыскать главу семейства.




    Снималось в: США
    Киностудия: Jean Doumanian Productions
    Время просмотра: 02:00:49
    Перевод текста: Дублированный лицензия

    Файл
    Кодек для видео: XviD
    Качество фильма: HDRip
    Информация о видео: 688x288 (2.39:1), 24.000 fps, XviD build 50 ~725 kbps avg, 0.15 bit/pixel
    Информация о звуке: 48 kHz, MPEG Layer 3, 2 ch, ~128.00 kbps avg
    Субтитры: нет

    Семпл

    MediaInfo

    Общее
    Полное имя : S:ФильмыАвгуст. 2013. HDRip.avi
    Формат : AVI
    Формат/Информация : Audio Video Interleave
    Размер файла : 745 Мбайт
    Продолжительность : 2 ч. 0 м.
    Общий поток : 862 Кбит/сек
    Программа кодирования : VirtualDubMod 1.5.10.3 | www.virtualdub-fr.org || (build 2550/release)
    Библиотека кодирования : VirtualDubMod build 2550/release

    Видео
    Идентификатор : 0
    Формат : MPEG-4 Visual
    Профиль формата : Advanced Simple@L5
    Параметр BVOP формата : 2
    Параметр QPel формата : Нет
    Параметр GMC формата : Без точки перехода
    Параметр матрицы формата : Выборочная
    Идентификатор кодека : XVID
    Идентификатор кодека/Подсказка : XviD
    Продолжительность : 2 ч. 0 м.
    Битрейт : 725 Кбит/сек
    Ширина : 688 пикс.
    Высота : 288 пикс.
    Соотношение сторон : 2,40:1
    Частота кадров : 24,000 кадр/сек
    Цветовое пространство : YUV
    Подвыборка цветности : 4:2:0
    Битовая глубина : 8 бит
    Тип развёртки : Прогрессивная
    Метод сжатия : С потерями
    Бит/(Пиксели*Кадры) : 0.152
    Размер потока : 626 Мбайт (84%)
    Библиотека кодирования : XviD 1.2.1 (UTC 2008-12-04)

    Аудио
    Идентификатор : 1
    Формат : MPEG Audio
    Версия формата : Version 1
    Профиль формата : Layer 3
    Идентификатор кодека : 55
    Идентификатор кодека/Подсказка : MP3
    Продолжительность : 2 ч. 0 м.
    Вид битрейта : Постоянный
    Битрейт : 128 Кбит/сек
    Каналы : 2 канала
    Частота : 48,0 КГц
    Метод сжатия : С потерями
    Размер потока : 111 Мбайт (15%)
    Выравнивание : Соединение по промежуткам
    Продолжительность промежутка : 42 мс. (1,00 видеокадр)
    Время предзагрузки промежутка : 504 ms
    Библиотека кодирования : LAME3.99r
    Залил: fedorjuk
    Размер скачиваемого торрента: 744.85 MB (781033472 Bytes)


    Август / August: Osage County (2013) HDRip | Лицензия торрент скачать бесплатно
    загрузка...
    Рейтинг →
     (голосов: 1, оценка 3/5, голосовать можно 1 раз )

    Другие торренты по теме:

  • Римская империя: Август / Август - первый император / Imperium: Augustus (2003) DVDRip от Sheikn
  • Август / August (2008) DVDRip
  • Август Раш / August Rush (2007) BDRip 1080p от FREEISLAND
  • Август - Дискография (1983-2012) MP3
  • Chip №8 Россия (август) (2013) PDF
  • Maxim №8 Украина (август 2013) PDF
  • Мир фантастики №8 (август) (2013) PDF
  • Игромания №8 (август 2013) PDF


    • Комментарии (0):

      Информация

      Информация

        Посетители, находящиеся в группе Гости, не могут оставлять комментарии в данной новости.

        ↓ Меню



        ↓ Опрос

        А Вы добавили сайт в закладки?
        Да
        Не


        Top 10 за месяц (Фильмы)