.
Авторизация | Регистрация
» » Молода и прекрасна / Jeune Jolie / Young Beautiful (2013) BDRip 1080p от GORESEWAGE торрент скачать бесплатно




    Молода и прекрасна / Jeune Jolie / Young Beautiful (2013) BDRip 1080p от GORESEWAGE торрент скачать бесплатно

    Опубликовал: Админ | Дата: 27-02-2015, 11:10 | Просмотров: 222



    Молода и прекрасна / Jeune Jolie / Young Beautiful

    Создали в: 2013
    Снималось в: Франция
    Категория жанра: драма, мелодрама
    Время просмотра: 01:33:20
    Перевод текста: Профессиональный (дублированный) DVD R5
    Оригинальная аудиодорожка: French
    Субтитры: French (Forced), English (Full)
    Киностудия: Mandarin Films (as Mandarin Cin?ma), Mars Distribution (co-production) (as Mars Films), France 2 Cin?ma (co-production), FOZ (co-production), Canal (participation), Cin? (participation), France T?l?visions (participation), La Banque Postale Image 6 (in association with), Cofimage 24 (in association with), Sofica Manon 3 (in association with), Cofinova 9 (in association with), Palatine ?toile 10 (in association with), R?gion Ile-de-France (support)

    Главный режиссёр: Франсуа Озон / Fran?ois Ozon

    Актеры: Марина Вакт, Жеральдин Пайя, Фредерик Пьеро, Шарлотта Рэмплинг, Фантен Рава, Йохан Лейзен, Натали Ришар, Джедже Апали, Люка Призор, Лорен Дельбек и др.

    Сюжет: Семнадцатилетняя Изабель погружается в бездонный мир любви, в поиски себя. Не столько из-за денег, сколько ради удовольствия, она встречается с немолодыми клиентами в гостиничных номерах. Близкие Изабель не подозревают, чем одержима умная и тонкая девушка. Но однажды умирает один из её постоянных клиентов…



    Sample

    Качество фильма: BDRip 1080p
    Контейнер: MKV
    Информация о видео кодек: MPEG-4 AVC Video
    Информация о звуке кодек: DTS / AC3
    Информация о видео: MPEG-4 AVC Video / 19300 kbps / 1920x1040p / 23,976 fps / 1.85:1 / High Profile 4.1
    Информация о звуке 1: Russian / AC3 / 5.1 / 48 kHz / 384 kbps / 16-bit | Dub DVD R5
    Информация о звуке 2: French / DTS / 5.1 / 48 kHz / 1536 kbps / 16-bit | Original
    Информация о звуке 3: French / DTS / 2.0 / 48 kHz / 768 kbps / 16-bit | Descriрtion
    Навигация по главам: да

    Screens

    MediaInfo
    C:/GORESEWAGE/Jeune Jolie (Young Beautiful) 2013 BDRip 1080p GORESEWAGE.mkv
    General
    Unique ID : 202552099202676073197554508361720776621 (0x98621D854D933904AE8B4D6A04EDC7AD)
    Complete name : C:/GORESEWAGE/Jeune Jolie (Young Beautiful) 2013 BDRip 1080p GORESEWAGE.mkv
    Format : Matroska
    Format version : Version 4 / Version 2
    File size : 14.6 GiB
    Duration : 1h 33mn
    Overall bit rate : 22.4 Mbps
    Movie name : Jeune Jolie (Young Beautiful) 2013 BDRip 1080p GORESEWAGE
    Encoded date : UTC 2014-03-05 10:40:00
    Writing application : mkvmerge v6.8.0 (;Theme for Great Cities;) 64bit built on Mar 2 2014 21:34:26
    Writing library : libebml v1.3.0 libmatroska v1.4.1
    Attachment : Yes
    Video #1
    ID : 1
    Format : AVC
    Format/Info : Advanced Video Codec
    Format profile : High@L4.1
    Format settings, CABAC : Yes
    Format settings, ReFrames : 4 frames
    Codec ID : V_MPEG4/ISO/AVC
    Duration : 1h 33mn
    Bit rate : 19.3 Mbps
    Width : 1 920 pixels
    Height : 1 040 pixels
    Display aspect ratio : 1.85:1
    Frame rate mode : Constant
    Frame rate : 23.976 fps
    Color space : YUV
    Chroma subsampling : 4:2:0
    Bit depth : 8 bits
    Scan type : Progressive
    Bits/(Pixel*Frame) : 0.403
    Stream size : 12.6 GiB (86%)
    Title : Jeune Jolie (Young Beautiful) 2013 BDRip 1080p GORESEWAGE
    Writing library : x264 core 140 r2377 40 929f149 tMod 8-bit@all X86
    Encoding settings : cabac=1 / ref=4 / deblock=1:-3:-3 / analyse=0x3:0x133 / me=umh / subme=11 / psy=1 / fade_compensate=0.00 / psy_rd=1.10:0.00 / mixed_ref=1 / me_range=64 / chroma_me=1 / trellis=2 / 8x8dct=1 / cqm=0 / deadzone=21,11 / fast_pskip=0 / chroma_qp_offset=-2 / threads=18 / lookahead_threads=4 / sliced_threads=0 / nr=0 / decimate=0 / interlaced=0 / bluray_compat=0 / constrained_intra=0 / fgo=0 / bframes=10 / b_pyramid=2 / b_adapt=2 / b_bias=0 / direct=3 / weightb=1 / open_gop=0 / weightp=2 / keyint=250 / keyint_min=23 / scenecut=40 / intra_refresh=0 / rc_lookahead=80 / rc=crf / mbtree=0 / crf=19.9200 / qcomp=0.70 / qpmin=0:0:0 / qpmax=69:69:69 / qpstep=4 / vbv_maxrate=50000 / vbv_bufsize=62500 / crf_max=0.0 / nal_hrd=none / filler=0 / ip_ratio=1.20 / pb_ratio=1.10 / aq=1:0.60 / aq-sensitivity=10.00 / aq-factor=1.00:1.00:1.00 / aq2=0 / aq3=0
    Language : French
    Default : Yes
    Forced : No
    Audio #2
    ID : 2
    Format : AC-3
    Format/Info : Audio Coding 3
    Mode extension : CM (complete main)
    Format settings, Endianness : Big
    Codec ID : A_AC3
    Duration : 1h 33mn
    Bit rate mode : Constant
    Bit rate : 384 Kbps
    Channel count : 6 channels
    Channel positions : Front: L C R, Side: L R, LFE
    Sampling rate : 48.0 KHz
    Bit depth : 16 bits
    Compression mode : Lossy
    Stream size : 256 MiB (2%)
    Title : Dub DVD R5
    Language : Russian
    Default : Yes
    Forced : No
    Audio #3
    ID : 3
    Format : DTS
    Format/Info : Digital Theater Systems
    Mode : 16
    Format settings, Endianness : Big
    Codec ID : A_DTS
    Duration : 1h 33mn
    Bit rate mode : Constant
    Bit rate : 1 509 Kbps
    Channel count : 6 channels
    Channel positions : Front: L C R, Side: L R, LFE
    Sampling rate : 48.0 KHz
    Bit depth : 16 bits
    Compression mode : Lossy
    Stream size : 1 007 MiB (7%)
    Title : Original
    Language : French
    Default : No
    Forced : No
    Audio #4
    ID : 4
    Format : DTS
    Format/Info : Digital Theater Systems
    Mode : 16
    Format settings, Endianness : Big
    Codec ID : A_DTS
    Duration : 1h 33mn
    Bit rate mode : Constant
    Bit rate : 768 Kbps
    Channel count : 2 channels
    Channel positions : Front: L R
    Sampling rate : 48.0 KHz
    Bit depth : 16 bits
    Compression mode : Lossy
    Stream size : 513 MiB (3%)
    Title : Descriрtion
    Language : French
    Default : No
    Forced : No
    Text #5
    ID : 5
    Format : UTF-8
    Codec ID : S_TEXT/UTF8
    Codec ID/Info : UTF-8 Plain Text
    Title : Forced
    Language : French
    Default : No
    Forced : No
    Text #6
    ID : 6
    Format : UTF-8
    Codec ID : S_TEXT/UTF8
    Codec ID/Info : UTF-8 Plain Text
    Title : Full
    Language : English
    Default : No
    Forced : No
    Menu
    00:00:00.000 : en:00:00:00.000
    00:02:22.434 : en:00:02:22.434
    00:07:35.288 : en:00:07:35.288
    00:16:08.759 : en:00:16:08.759
    00:22:17.253 : en:00:22:17.253
    00:32:00.919 : en:00:32:00.919
    00:36:23.973 : en:00:36:23.973
    00:46:36.794 : en:00:46:36.794
    00:54:12.082 : en:00:54:12.082
    01:05:16.871 : en:01:05:16.871
    01:10:03.366 : en:01:10:03.366
    01:18:27.286 : en:01:18:27.286
    01:23:39.973 : en:01:23:39.973
    01:30:24.669 : en:01:30:24.669

    Размер скачиваемого торрента: 14.60 GB (15679085470 Bytes)

    Молода и прекрасна / Jeune Jolie / Young Beautiful (2013) BDRip 1080p от GORESEWAGE торрент скачать бесплатно
    загрузка...
    Рейтинг →
     (голосов: 1, оценка 3/5, голосовать можно 1 раз )

    Другие торренты по теме:

  • Сергей Тармашев в Молодой гвардии 16.12.2012 (2012) WEB-DL360p от bookstoremg торрент скачать бесплатно
  • Молодая мамаша / Pramface (2012) HDTVRip | L торрент скачать бесплатно
  • Михаил Зощенко - Возвращённая молодость (1933) (2007) MP3 торрент скачать бесплатно
  • Вторая молодость / Druga mlodosc (1938) TVRip | A торрент скачать бесплатно
  • Молодой мастер / Shi di chu ma / The Young Master (1980) BDRip от FilmRus торрент скачать бесплатно
  • Молодые Воины / Young Warriors (1983) VHSRip торрент скачать бесплатно
  • OST - Молодой Адам / Young Adam (2003) MP3 торрент скачать бесплатно
  • Молодые сердца / Love and Honor (2012) BDRip 1080p торрент скачать бесплатно


    • Комментарии (0):

      Информация

      Информация

        Посетители, находящиеся в группе Гости, не могут оставлять комментарии в данной новости.

        ↓ Меню



        ↓ Опрос

        А Вы добавили сайт в закладки?
        Да
        Не


        Top 10 за неделю (Фильмы)