.
Авторизация | Регистрация
» » Ты - самое дорогое, что у меня есть / Na xie nian, wo men yi qi zhui de nu hai (2011) HDRip от NovaLan торрент скачать бесплатно




    Ты - самое дорогое, что у меня есть / Na xie nian, wo men yi qi zhui de nu hai (2011) HDRip от NovaLan торрент скачать бесплатно

    Опубликовал: Админ | Дата: 27-02-2015, 11:10 | Просмотров: 207





    Снималось в: Тайвань
    Создали в: Star Ritz Productions Co., Sony Music Entertainment
    Категория жанра: Драма, мелодрама, комедия
    Создали в: 2011

    Время просмотра: 01:49:35


    Перевод текста: Любительский одноголосый


    Главный режиссер: Гидденс Ко


    Актеры: Жендонг Ке, Мишель Чэнь, Оводог, Чан-Сень Цай, Ченг-ю Йен, Ван Ван, Чао-Вен Хао


    Сюжет: Ко Чин-Тэн, хулиган, озорной задира и плохой ученик. Ему скучно учиться, но он всегда в эпицентре событий школьной жизни. Он не желает взрослеть, заполняя свою жизнь подростковыми выходками. Все его друзья влюблены в отличницу Шэнь Цзяи. Ему на все наплевать до того момента, как его посадили за парту впереди Шэнь Цзяи. Под влиянием Шэнь Цзяи он начинает задумываться о том, кто он такой, и пытаться изменить свою жизнь.



    Исходник: BDRip 720p

    Тип релиза: HDRip

    Контейнер: AVI

    Семпл

    Информация о видео: XviD, 1413 Кбит/с, 704х304
    Информация о звуке: АС3, 6 ch, 448 Кбит/с



    MediaInfo
    Общее
    Полное имя : D:1АААТы – самое дорогое, что у меня есть.avi
    Формат : AVI
    Формат/Информация : Audio Video Interleave
    Размер файла : 1,43 Гбайт
    Продолжительность : 1 ч. 49 м.
    Общий поток : 1867 Кбит/сек
    Программа кодирования : VirtualDubMod 1.5.10.3 | www.virtualdub-fr.org || (build 2550/release)
    Библиотека кодирования : VirtualDubMod build 2550/release

    Видео
    Идентификатор : 0
    Формат : MPEG-4 Visual
    Профиль формата : Advanced Simple@L5
    Параметр BVOP формата : 2
    Параметр QPel формата : Нет
    Параметр GMC формата : Без точки перехода
    Параметр матрицы формата : Default (MPEG)
    Режим смешивания : Сжатый битовый поток
    Идентификатор кодека : XVID
    Идентификатор кодека/Подсказка : XviD
    Продолжительность : 1 ч. 49 м.
    Битрейт : 1410 Кбит/сек
    Ширина : 704 пикселя
    Высота : 304 пикселя
    Соотношение сторон : 2,35:1
    Частота кадров : 23,976 кадра/сек
    Цветовое пространство : YUV
    Субдискретизация насыщенности : 4:2:0
    Битовая глубина : 8 бит
    Тип развёртки : Прогрессивная
    Метод сжатия : С потерями
    Бит/(Пиксели*Кадры) : 0.275
    Размер потока : 1,08 Гбайт (76%)
    Библиотека кодирования : XviD 1.2.1 (UTC 2008-12-04)

    Аудио
    Идентификатор : 1
    Формат : AC-3
    Формат/Информация : Audio Coding 3
    Расширение режима : CM (complete main)
    Параметр Endianness формата : Big
    Идентификатор кодека : 2000
    Продолжительность : 1 ч. 49 м.
    Вид битрейта : Постоянный
    Битрейт : 448 Кбит/сек
    Каналы : 6 каналов
    Расположение каналов : Front: L C R, Side: L R, LFE
    Частота : 48,0 КГц
    Битовая глубина : 16 бит
    Метод сжатия : С потерями
    Размер потока : 351 Мбайт (24%)
    Выравнивание : Разделение по промежуткам
    Продолжительность промежутка : 42 мс. (1,00 видеокадр)
    Время предзагрузки промежутка : 500 мс.







    Скриншоты для ознакомления




    Релиз группа:

    Автор рипа:
    Залил: YArl
    Размер скачиваемого торрента: 1.43 GB (1534545920 Bytes)

    Ты - самое дорогое, что у меня есть / Na xie nian, wo men yi qi zhui de nu hai (2011) HDRip от NovaLan торрент скачать бесплатно
    загрузка...
    Рейтинг →
     (голосов: 1, оценка 4/5, голосовать можно 1 раз )

    Другие торренты по теме:



      Комментарии (0):

      Информация

      Информация

        Посетители, находящиеся в группе Гости, не могут оставлять комментарии в данной новости.

        ↓ Меню



        ↓ Опрос

        А Вы добавили сайт в закладки?
        Да
        Не


        Top 10 за неделю (Фильмы)